<?xml version="1.0" standalone="no"?>
<!DOCTYPE svg PUBLIC "-//W3C//DTD SVG 1.1//EN" "http://www.w3.org/Graphics/SVG/1.1/DTD/svg11.dtd" >
<svg>
<metadata>
Created by FontForge 20090914 at Wed Jul 17 18:25:49 2013
 By www-data
Copyright (c) 1988, 1990 Adobe Systems Incorporated.  All Rights Reserved.Helvetica is a registered trademark of Linotype AG and/or its subsidiaries.
</metadata>
<defs>
<font id="HelveticaNeueItalic" horiz-adv-x="556" >
  <font-face 
    font-family="HelveticaNeue"
    font-weight="5"
    font-style="italic"
    font-stretch="normal"
    units-per-em="1000"
    panose-1="0 0 0 0 0 0 0 0 0 0"
    ascent="800"
    descent="-200"
    x-height="516"
    cap-height="714"
    bbox="-165 -233 1099 951"
    underline-thickness="50"
    underline-position="-75"
    unicode-range="U+0020-U+F002"
  />
<missing-glyph horiz-adv-x="789" 
d="M49 0v789h691v-789h-691zM691 49v691h-593v-691h593z" />
    <glyph glyph-name=".notdef" horiz-adv-x="789" 
d="M49 0v789h691v-789h-691zM691 49v691h-593v-691h593z" />
    <glyph glyph-name="space" unicode=" " horiz-adv-x="278" 
 />
    <glyph glyph-name="exclam" unicode="!" horiz-adv-x="278" 
d="M23 0l23 106h85l-24 -106h-84zM84 178l53 314l48 222h67l-48 -223l-82 -313h-38z" />
    <glyph glyph-name="quotedbl" unicode="&#x22;" horiz-adv-x="370" 
d="M137 714h58v-243h-58v243zM262 714h58v-243h-58v243z" />
    <glyph glyph-name="numbersign" unicode="#" 
d="M487 223h-101l-31 -223h-50l31 223h-141l-31 -223h-50l31 223h-110l10 45h106l22 156h-110l10 45h106l31 222h50l-31 -222h141l31 222h50l-31 -222h105l-10 -45h-101l-22 -156h105zM223 424l-22 -156h141l22 156h-141z" />
    <glyph glyph-name="dollar" unicode="$" 
d="M324 671c-52.667 0 -97.501 -11.498 -134.501 -34.498s-55.5 -59.167 -55.5 -108.5c0 -26.667 7.83301 -49.334 23.5 -68.001s47.834 -35.334 96.501 -50.001l14 -4zM235.999 44.002l15 -1c52.667 0 99.667 13 141 39s62 64 62 114c0 41.333 -13.5 70.833 -40.5 88.5
s-65.833 33.5 -116.5 47.5zM504.999 506.002c0 51.333 -11.334 89.4971 -34.001 114.497s-57 40.5 -103 46.5l-58 -274l20 -6c64 -19.333 112 -41 144 -65s48 -63 48 -117c0 -51.333 -20.667 -100.833 -62 -148.5s-112.666 -71.5 -213.999 -71.5l-23 1l-18 -86h-45l20 91
c-64 9.33301 -113.833 34.333 -149.5 75s-53.5 97 -53.5 169h68c0 -56.667 12.333 -100 37 -130s61.334 -48.667 110.001 -56l63 296l-48 14c-44.667 12.667 -79.334 32.334 -104.001 59.001s-37 62.334 -37 107.001c0 70.667 26 122.334 78 155.001s116 49 192 49l11 52h45
l-12 -56c61.333 -8 108.833 -29.5 142.5 -64.5s50.5 -86.5 50.5 -154.5h-68z" />
    <glyph glyph-name="percent" unicode="%" horiz-adv-x="833" 
d="M674 723h55l-571 -755h-54zM67 468c0 62.667 16.1689 117.998 48.502 165.998s78.166 72 137.499 72c40.667 0 73.167 -12.833 97.5 -38.5s36.5 -59.167 36.5 -100.5c0 -63.333 -15.833 -119.166 -47.5 -167.499s-77.5 -72.5 -137.5 -72.5
c-42.667 0 -75.834 12.833 -99.501 38.5s-35.5 59.834 -35.5 102.501zM334.002 563.998c0 29.333 -6.83203 52.833 -20.499 70.5s-34.834 26.5 -63.501 26.5c-41.333 0 -73.333 -21.167 -96 -63.5s-34 -86.166 -34 -131.499c0 -26 7.16699 -48.167 21.5 -66.5
s34.833 -27.5 61.5 -27.5c43.333 0 76 20.167 98 60.5s33 84.166 33 131.499zM446.003 125.998c0 62.667 16.1689 117.998 48.502 165.998s78.166 72 137.499 72c40.667 0 73.167 -12.833 97.5 -38.5s36.5 -59.167 36.5 -100.5c0 -63.333 -15.833 -119.166 -47.5 -167.499
s-77.5 -72.5 -137.5 -72.5c-42.667 0 -75.834 12.833 -99.501 38.5s-35.5 59.834 -35.5 102.501zM712.005 221.996c0 29.333 -6.83203 52.833 -20.499 70.5s-34.834 26.5 -63.501 26.5c-41.333 0 -73.333 -21.167 -96 -63.5s-34 -86.166 -34 -131.499
c0 -26 7.16699 -48.167 21.5 -66.5s34.833 -27.5 61.5 -27.5c43.333 0 76 20.167 98 60.5s33 84.166 33 131.499z" />
    <glyph glyph-name="ampersand" unicode="&#x26;" horiz-adv-x="611" 
d="M425 572c0 28.667 -8.83203 50.665 -26.499 65.998s-40.834 23 -69.501 23c-29.333 0 -54.5 -9.5 -75.5 -28.5s-31.5 -43.5 -31.5 -73.5c0 -20.667 4.33301 -40.167 13 -58.5s23 -45.166 43 -80.499c46 25.333 82 48.833 108 70.5s39 48.834 39 81.501zM255.001 350.998
c-55.333 -26.667 -98.333 -53.3311 -129 -79.998s-46 -62.334 -46 -107.001c0 -34.667 13 -64.334 39 -89.001s57.333 -37 94 -37c71.333 0 132.333 30.667 183 92zM552.001 315.001c-8 -36 -18.667 -68.998 -32 -98.998s-31 -59.333 -53 -88l83 -128h-71l-54 84
c-26 -32 -56.667 -56.5 -92 -73.5s-73.666 -25.5 -114.999 -25.5c-60 0 -108.5 16 -145.5 48s-55.5 77 -55.5 135c0 55.333 18 99 54 131s88 64 156 96c-23.333 34.667 -40.5 63.667 -51.5 87s-16.5 49.666 -16.5 78.999c0 45.333 16.5 82.166 49.5 110.499
s73.833 42.5 122.5 42.5c42.667 0 79.5 -11.5 110.5 -34.5s46.5 -54.833 46.5 -95.5c0 -46 -15.833 -83.833 -47.5 -113.5s-76.5 -60.5 -134.5 -92.5l128 -199c12.667 16 23.667 36.167 33 60.5s16.666 49.5 21.999 75.5h63z" />
    <glyph glyph-name="quotesingle" unicode="'" horiz-adv-x="278" 
d="M153 714h58v-243h-58v243z" />
    <glyph glyph-name="parenleft" unicode="(" horiz-adv-x="259" 
d="M113 -191c-21.333 59.333 -37.333 121.167 -48 185.5s-16 128.833 -16 193.5c0 99.333 22 194.333 66 285s103.333 176 178 256h52c-80.667 -98.667 -140.5 -197 -179.5 -295s-58.5 -209 -58.5 -333c0 -46 4.33301 -93 13 -141s20.667 -98.333 36 -151h-43z" />
    <glyph glyph-name="parenright" unicode=")" horiz-adv-x="259" 
d="M130 729c21.333 -59.333 37.333 -121.167 48 -185.5s16 -128.833 16 -193.5c0 -99.333 -22 -194.333 -66 -285s-103.333 -176 -178 -256h-52c80.667 98.667 140.5 197 179.5 295s58.5 209 58.5 333c0 46 -4.33301 93 -13 141s-20.667 98.333 -36 151h43z" />
    <glyph glyph-name="asterisk" unicode="*" horiz-adv-x="352" 
d="M72 616l21 35l102 -57l26 120h39l-25 -124l116 24l5 -38l-115 -25l60 -102l-38 -19l-59 106l-86 -92l-28 27l83 90z" />
    <glyph glyph-name="plus" unicode="+" horiz-adv-x="600" 
d="M274 503h53v-225h225v-53h-225v-225h-53v225h-225v53h225v225z" />
    <glyph glyph-name="comma" unicode="," horiz-adv-x="278" 
d="M-4 -97c21.333 6.66699 36.333 17.3311 45 31.998s16.667 36.334 24 65.001h-42l24 106h84l-33 -140c-7.33301 -31.333 -19 -54.166 -35 -68.499s-41 -25.833 -75 -34.5z" />
    <glyph glyph-name="hyphen" unicode="-" horiz-adv-x="370" 
d="M50 304h251l-12 -58h-251z" />
    <glyph glyph-name="period" unicode="." horiz-adv-x="278" 
d="M23 0l23 106h85l-24 -106h-84z" />
    <glyph glyph-name="slash" unicode="/" horiz-adv-x="333" 
d="M-20 -15h-59l411 744h59z" />
    <glyph glyph-name="zero" unicode="0" 
d="M25 244c0 108 26.667 212 80 312s129.333 150 228 150c70 0 120.5 -22.5 151.5 -67.5s46.5 -104.167 46.5 -177.5c0 -114.667 -26.5 -222.667 -79.5 -324s-131.5 -152 -235.5 -152c-69.333 0 -118.5 24.333 -147.5 73s-43.5 110.667 -43.5 186zM326 653
c-75.333 0 -133.832 -49.1689 -175.499 -147.502s-62.5 -192.166 -62.5 -281.499c0 -55.333 10.833 -100.166 32.5 -134.499s58.5 -51.5 110.5 -51.5c77.333 0 136.166 48.667 176.499 146s60.5 192 60.5 284c0 54.667 -10.5 99.167 -31.5 133.5s-57.833 51.5 -110.5 51.5z
" />
    <glyph glyph-name="one" unicode="1" 
d="M147 575c49.333 7.33301 93 20.833 131 40.5s68.333 47.834 91 84.501h48l-150 -700h-63l124 581c-28 -14.667 -56.5 -25.834 -85.5 -33.501s-65.167 -15.167 -108.5 -22.5z" />
    <glyph glyph-name="two" unicode="2" 
d="M80 466c0 69.333 23.001 126.669 69.001 172.002s103.667 68 173 68c58 0 106 -15.833 144 -47.5s57 -75.834 57 -132.501s-17.5 -103.667 -52.5 -141s-90.667 -77.5 -167 -120.5s-131.5 -76.833 -165.5 -101.5s-59.333 -59.667 -76 -105h391l-11 -58h-453
c0 46 11.333 86.5 34 121.5s49.5 63.667 80.5 86s74 48.666 129 78.999s96.167 54.5 123.5 72.5s51.5 41.167 72.5 69.5s31.5 61.5 31.5 99.5c0 40 -13.833 70.833 -41.5 92.5s-61.834 32.5 -102.501 32.5c-52.667 0 -94.667 -17.833 -126 -53.5s-47 -80.167 -47 -133.5h-63
z" />
    <glyph glyph-name="three" unicode="3" 
d="M72 222c0 -58 12.3311 -103.168 36.998 -135.501s63.667 -48.5 117 -48.5c52.667 0 97.334 16.333 134.001 49s55 74.334 55 125.001c0 44.667 -14.667 77.334 -44 98.001s-66.666 31 -111.999 31h-34l11 53h41c52.667 0 96 9.66699 130 29s51 55.333 51 108
c0 38.667 -13.167 68.667 -39.5 90s-58.5 32 -96.5 32c-50 0 -89.667 -14.5 -119 -43.5s-48 -69.833 -56 -122.5h-63c12.667 70 38.667 124 78 162s93.333 57 162 57c55.333 0 102 -15.167 140 -45.5s57 -72.833 57 -127.5c0 -43.333 -13.667 -80.333 -41 -111
s-62.666 -49.667 -105.999 -57c33.333 -9.33301 59 -27.333 77 -54s27 -58.334 27 -95.001c0 -70.667 -24.333 -126.834 -73 -168.501s-106.667 -62.5 -174 -62.5c-78.667 0 -135.334 20.833 -170.001 62.5s-52 99.834 -52 174.501h63z" />
    <glyph glyph-name="four" unicode="4" 
d="M72 227h258l79 363l-2 2zM439 700h56l-102 -473h106l-12 -53h-105l-38 -174h-63l38 174h-320l11 59z" />
    <glyph glyph-name="five" unicode="5" 
d="M175 691h357l-14 -58h-306l-75 -224c19.333 18.667 42.666 32.5 69.999 41.5s56 13.5 86 13.5c59.333 0 106.5 -19.333 141.5 -58s52.5 -88 52.5 -148c0 -80 -24.5 -145.5 -73.5 -196.5s-113.5 -76.5 -193.5 -76.5c-64.667 0 -115 19 -151 57s-54 90 -54 156h63
c-0.666992 -4.66699 -1 -11.667 -1 -21c0 -43.333 13.333 -77.333 40 -102s63.334 -37 110.001 -37c57.333 0 104.5 20.5 141.5 61.5s55.5 90.167 55.5 147.5c0 50 -13 89.833 -39 119.5s-64 44.5 -114 44.5c-33.333 0 -63.5 -6.5 -90.5 -19.5s-48.5 -33.5 -64.5 -61.5
l-56 5z" />
    <glyph glyph-name="six" unicode="6" 
d="M277 403c-52 0 -94.665 -20.168 -127.998 -60.501s-50 -86.833 -50 -139.5c0 -47.333 13.667 -86.666 41 -117.999s64.666 -47 111.999 -47c57.333 0 102.333 20.833 135 62.5s49 92.167 49 151.5c0 45.333 -14.833 81.833 -44.5 109.5s-67.834 41.5 -114.501 41.5z
M483.002 522.999c0 86.667 -45 130.001 -135 130.001c-46 0 -84.5 -15.167 -115.5 -45.5s-55.5 -67.333 -73.5 -111s-33.333 -90.167 -46 -139.5c19.333 31.333 45.5 55.666 78.5 72.999s68.833 26 107.5 26c60.667 0 109.167 -20 145.5 -60s54.5 -90.667 54.5 -152
c0 -76 -23.5 -138.167 -70.5 -186.5s-108.5 -72.5 -184.5 -72.5c-68 0 -119.667 21.667 -155 65s-53 100.333 -53 171c0 52.667 5.66699 106 17 160s29.833 106.333 55.5 157s58.5 91.334 98.5 122.001s88.333 46 145 46c61.333 0 109 -15.333 143 -46
s51 -76.334 51 -137.001h-63z" />
    <glyph glyph-name="seven" unicode="7" 
d="M124 691l446.998 -0.000976562l-13 -54c-47.333 -46.667 -92 -97.334 -134 -152.001s-78.833 -109.167 -110.5 -163.5s-59.667 -109.5 -84 -165.5s-43.833 -108 -58.5 -156h-70c18.667 62.667 40.334 119.834 65.001 171.501s54.334 105.334 89.001 161.001
s71.667 108.5 111 158.5s81 97.333 125 142h-381z" />
    <glyph glyph-name="eight" unicode="8" 
d="M246 38c52.667 0 95.999 14.999 129.999 44.999s51 70.667 51 122c0 49.333 -15.667 85 -47 107s-73 33 -125 33c-50 0 -91.5 -14.667 -124.5 -44s-49.5 -68.666 -49.5 -117.999c0 -47.333 15.333 -83.333 46 -108s70.334 -37 119.001 -37zM239.999 -15.001
c-64.667 0 -117.833 16.835 -159.5 50.502s-62.5 83.167 -62.5 148.5c0 54.667 17.333 99.5 52 134.5s79 55.5 133 61.5c-30.667 10.667 -55 29 -73 55s-27 55 -27 87c0 56 20.5 100.667 61.5 134s90.5 50 148.5 50c59.333 0 109 -13.833 149 -41.5s60 -70.167 60 -127.5
c0 -43.333 -13.833 -80.5 -41.5 -111.5s-63.167 -49.833 -106.5 -56.5v-1c37.333 -10.667 66 -30.834 86 -60.501s30 -64.834 30 -105.501c0 -65.333 -25 -117.833 -75 -157.5s-108.333 -59.5 -175 -59.5zM166 519.001c0 -39.333 13.5 -69.332 40.5 -89.999
s60.833 -31 101.5 -31c44 0 80.167 11.667 108.5 35s42.5 56.666 42.5 99.999c0 40 -13.167 70 -39.5 90s-60.5 30 -102.5 30s-77.667 -11.833 -107 -35.5s-44 -56.5 -44 -98.5z" />
    <glyph glyph-name="nine" unicode="9" 
d="M118 439c0 -45.333 14.8311 -81.832 44.498 -109.499s67.834 -41.5 114.501 -41.5c52 0 94.667 20.167 128 60.5s50 86.833 50 139.5c0 47.333 -13.667 86.666 -41 117.999s-64.666 47 -111.999 47c-57.333 0 -102.333 -20.833 -135 -62.5s-49 -92.167 -49 -151.5z
M70.998 168.001c0 -86.667 45 -130.001 135 -130.001c46 0 84.5 15.167 115.5 45.5s55.5 67.333 73.5 111s33.333 90.167 46 139.5c-19.333 -31.333 -45.5 -55.666 -78.5 -72.999s-68.833 -26 -107.5 -26c-60.667 0 -109.167 20 -145.5 60s-54.5 90.667 -54.5 152
c0 76 23.5 138.167 70.5 186.5s108.5 72.5 184.5 72.5c68 0 119.667 -21.667 155 -65s53 -100.333 53 -171c0 -52.667 -5.66699 -106 -17 -160s-29.833 -106.333 -55.5 -157s-58.5 -91.334 -98.5 -122.001s-88.333 -46 -145 -46c-61.333 0 -109 15.333 -143 46
s-51 76.334 -51 137.001h63z" />
    <glyph glyph-name="colon" unicode=":" horiz-adv-x="278" 
d="M23 0l23 106h85l-24 -106h-84zM113 394l23 106h85l-24 -106h-84z" />
    <glyph glyph-name="semicolon" unicode=";" horiz-adv-x="278" 
d="M-4 -97c21.333 6.66699 36.333 17.3311 45 31.998s16.667 36.334 24 65.001h-42l24 106h84l-33 -140c-7.33301 -31.333 -19 -54.166 -35 -68.499s-41 -25.833 -75 -34.5zM113 393.997l23 106h85l-24 -106h-84z" />
    <glyph glyph-name="less" unicode="&#x3c;" horiz-adv-x="600" 
d="M554 -8l-508 234v54l508 234v-55l-446 -206l446 -206v-55z" />
    <glyph glyph-name="equal" unicode="=" horiz-adv-x="600" 
d="M552 325h-503v53h503v-53zM552 128h-503v53h503v-53z" />
    <glyph glyph-name="greater" unicode="&#x3e;" horiz-adv-x="600" 
d="M492 253l-446 206v55l508 -234v-54l-508 -234v55z" />
    <glyph glyph-name="question" unicode="?" horiz-adv-x="537" 
d="M195 182c7.33301 52.667 21.168 92.001 41.501 118.001s51.666 53.667 93.999 83s74 56.833 95 82.5s31.5 54.5 31.5 86.5c0 39.333 -12.167 69.833 -36.5 91.5s-56.833 32.5 -97.5 32.5c-51.333 0 -93 -17.333 -125 -52s-48 -78.334 -48 -131.001h-63
c0 72 21.667 129.333 65 172s101.333 64 174 64c54 0 99.833 -14.667 137.5 -44s56.5 -70.666 56.5 -123.999c0 -38 -10.167 -73.5 -30.5 -106.5s-55.333 -65.667 -105 -98s-81 -59.333 -94 -81s-23.833 -52.834 -32.5 -93.501h-63zM170.002 106.001h85l-24 -106h-84z" />
    <glyph glyph-name="at" unicode="@" horiz-adv-x="800" 
d="M256 279c0 -30 7.66699 -53.667 23 -71s35.333 -26 60 -26c43.333 0 81.833 26.667 115.5 80s50.5 105 50.5 155c0 22.667 -8.33301 43.834 -25 63.501s-34.667 29.5 -54 29.5c-47.333 0 -87.5 -25.333 -120.5 -76s-49.5 -102.334 -49.5 -155.001zM614 544
l-95.999 -288.002c-4 -13.333 -6.83301 -23.833 -8.5 -31.5s-2.5 -15.167 -2.5 -22.5c0 -19.333 8 -29 24 -29c43.333 0 82.333 26.833 117 80.5s52 109.5 52 167.5c0 80 -27.333 143.833 -82 191.5s-122 71.5 -202 71.5c-92 0 -167.667 -31.667 -227 -95s-89 -142 -89 -236
c0 -92 30.167 -168.833 90.5 -230.5s136.166 -92.5 227.499 -92.5c50 0 98.333 11.833 145 35.5s84.334 56.167 113.001 97.5h51c-29.333 -54 -72.333 -97.167 -129 -129.5s-116.667 -48.5 -180 -48.5c-106.667 0 -195.167 35.833 -265.5 107.5
s-105.5 160.834 -105.5 267.501c0 103.333 35.667 190.666 107 261.999s158 107 260 107c98 0 179 -28.833 243 -86.5s96 -132.5 96 -224.5c0 -78 -24.167 -145.833 -72.5 -203.5s-101.5 -86.5 -159.5 -86.5c-18 0 -33.167 5.83301 -45.5 17.5s-19.5 28.167 -21.5 49.5
c-19.333 -19.333 -39.833 -35.166 -61.5 -47.499s-44.167 -18.5 -67.5 -18.5c-40 0 -72 13.833 -96 41.5s-36 62.167 -36 103.5c0 73.333 22.5 139.833 67.5 199.5s101.5 89.5 169.5 89.5c23.333 0 44.166 -6.66699 62.499 -20s32.833 -34.666 43.5 -63.999l25 65h53z" />
    <glyph glyph-name="A" unicode="A" horiz-adv-x="630" 
d="M362 714h74l130 -714h-71l-36 222h-326l-132 -222h-76zM167 280h282l-61 376z" />
    <glyph glyph-name="B" unicode="B" horiz-adv-x="667" 
d="M86 58h242.001c55.333 0 103.166 13.333 143.499 40s60.5 66 60.5 118c0 47.333 -15.667 80.333 -47 99s-72 28 -122 28h-215zM160.001 714l277 -0.000976562c58.667 0 106 -13 142 -39s54 -67.333 54 -124c0 -46.667 -14.167 -86.167 -42.5 -118.5
s-65.833 -52.166 -112.5 -59.499c36.667 -5.33301 66.167 -22 88.5 -50s33.5 -61 33.5 -99c0 -78.667 -26.833 -135.667 -80.5 -171s-122.5 -53 -206.5 -53h-308zM161.001 400.999h225.001c49.333 0 91.5 12.333 126.5 37s52.5 60 52.5 106c0 38.667 -11.833 67 -35.5 85
s-54.834 27 -93.501 27h-220z" />
    <glyph glyph-name="C" unicode="C" horiz-adv-x="704" 
d="M620 488c0 58.667 -18 103.834 -54 135.501s-84.333 47.5 -145 47.5c-101.333 0 -179.833 -38.333 -235.5 -115s-83.5 -167.667 -83.5 -273c0 -74 20.833 -132.5 62.5 -175.5s99.5 -64.5 173.5 -64.5c58 0 108.333 17.667 151 53s73 84.666 91 147.999h68
c-17.333 -77.333 -53.333 -139.833 -108 -187.5s-125.667 -71.5 -213 -71.5c-91.333 0 -163 27.667 -215 83s-78 129 -78 221c0 120 35.333 223.333 106 310s164.667 130 282 130c78 0 141.833 -21 191.5 -63s74.5 -101.333 74.5 -178h-68z" />
    <glyph glyph-name="D" unicode="D" horiz-adv-x="685" 
d="M86 58h172.001c111.333 0 195.166 36.667 251.499 110s84.5 164.333 84.5 273c0 143.333 -71.667 215 -215 215h-163zM160.001 714h230c98 0 167.833 -24.667 209.5 -74s62.5 -120 62.5 -212c0 -119.333 -34.5 -220.5 -103.5 -303.5s-164.833 -124.5 -287.5 -124.5h-266z
" />
    <glyph glyph-name="E" unicode="E" horiz-adv-x="574" 
d="M157 714h479l-13 -58h-410l-55 -258h383l-13 -58h-382l-60 -282h420l-13 -58h-488z" />
    <glyph glyph-name="F" unicode="F" horiz-adv-x="537" 
d="M158 714h457l-12 -58h-389l-55 -258h345l-11 -58h-347l-73 -340h-68z" />
    <glyph glyph-name="G" unicode="G" horiz-adv-x="741" 
d="M638 494c0 58 -20.001 102.001 -60.001 132.001s-93.667 45 -161 45c-90.667 0 -165.834 -38.667 -225.501 -116s-89.5 -166.333 -89.5 -267c0 -74.667 19.833 -134.167 59.5 -178.5s96.834 -66.5 171.501 -66.5c76 0 139.333 24.5 190 73.5s82.334 111.833 95.001 188.5
h-246l14 58h305l-75 -363h-46l12 120c-30.667 -46.667 -67.667 -80.834 -111 -102.501s-93.333 -32.5 -150 -32.5c-91.333 0 -162 26.667 -212 80s-75 126.333 -75 219c0 122.667 34.5 227.5 103.5 314.5s164.167 130.5 285.5 130.5c89.333 0 158.833 -20.5 208.5 -61.5
s74.5 -98.833 74.5 -173.5h-68z" />
    <glyph glyph-name="H" unicode="H" horiz-adv-x="704" 
d="M157 714h68l-66 -310h413l66 310h68l-152 -714h-68l74 346h-413l-74 -346h-68z" />
    <glyph glyph-name="I" unicode="I" horiz-adv-x="222" 
d="M156 714h68l-151 -714h-68z" />
    <glyph glyph-name="J" unicode="J" horiz-adv-x="500" 
d="M57 229c-2 -11.333 -4 -25.835 -6 -43.502s-3 -32.5 -3 -44.5c0 -34 11.667 -58.833 35 -74.5s53 -23.5 89 -23.5c46.667 0 81.167 14.333 103.5 43s38.833 68.334 49.5 119.001l109 509h68l-114 -534c-14 -65.333 -37.833 -114.166 -71.5 -146.499
s-83.5 -48.5 -149.5 -48.5c-56.667 0 -102 13.167 -136 39.5s-51 67.5 -51 123.5c0 28 3 55 9 81h68z" />
    <glyph glyph-name="K" unicode="K" horiz-adv-x="648" 
d="M157 714h68l-82 -381l2 -2l461 383h95l-366 -298l255 -416h-78l-227 374l-159 -127l-53 -247h-68z" />
    <glyph glyph-name="L" unicode="L" horiz-adv-x="537" 
d="M159 714h68l-141 -656h395l-14 -58h-462z" />
    <glyph glyph-name="M" unicode="M" horiz-adv-x="852" 
d="M157 714h99l111 -641l392 641h99l-153 -714h-67l147 646l-397 -646h-68l-115 656l-137 -656h-66z" />
    <glyph glyph-name="N" unicode="N" horiz-adv-x="704" 
d="M154 714h77l285 -638l134 638h66l-156 -714h-75l-285 638l-135 -638h-65z" />
    <glyph glyph-name="O" unicode="O" horiz-adv-x="741" 
d="M421 671c-101.333 0 -179.834 -38.333 -235.501 -115s-83.5 -167.667 -83.5 -273c0 -74 20.833 -132.5 62.5 -175.5s99.5 -64.5 173.5 -64.5c92.667 0 167.834 37.667 225.501 113s86.5 161 86.5 257c0 78 -19.167 140.5 -57.5 187.5s-95.5 70.5 -171.5 70.5zM33.999 289
c0 120 35.333 223.333 106 310s164.667 130 282 130c90 0 161.833 -27.167 215.5 -81.5s80.5 -126.833 80.5 -217.5c0 -123.333 -35 -228.333 -105 -315s-165.333 -130 -286 -130c-91.333 0 -163 27.667 -215 83s-78 129 -78 221z" />
    <glyph glyph-name="P" unicode="P" horiz-adv-x="630" 
d="M159 714h287.999c55.333 0 100.833 -15.833 136.5 -47.5s53.5 -74.5 53.5 -128.5c0 -72.667 -22.667 -129.5 -68 -170.5s-104.666 -61.5 -177.999 -61.5h-252l-66 -306h-68zM151.999 364h241c51.333 0 93.5 14.667 126.5 44s49.5 69.333 49.5 120
c0 44.667 -12.667 77.167 -38 97.5s-61 30.5 -107 30.5h-209z" />
    <glyph glyph-name="Q" unicode="Q" horiz-adv-x="741" 
d="M649 -23l-39.999 -41l-100 94c-52.667 -30 -113.334 -45 -182.001 -45c-91.333 0 -163 27.667 -215 83s-78 129 -78 221c0 120 35.333 223.333 106 310s164.667 130 282 130c90 0 161.833 -27.167 215.5 -81.5s80.5 -126.833 80.5 -217.5
c0 -74.667 -13.833 -144.667 -41.5 -210s-67.167 -118 -118.5 -158zM421.001 190l90 -84c43.333 34 77.333 78.833 102 134.5s37 113.167 37 172.5c0 78 -19.167 140.5 -57.5 187.5s-95.5 70.5 -171.5 70.5c-101.333 0 -179.833 -38.333 -235.5 -115
s-83.5 -167.667 -83.5 -273c0 -74 20.833 -132.5 62.5 -175.5s99.5 -64.5 173.5 -64.5c44 0 85.333 10.667 124 32l-80 74z" />
    <glyph glyph-name="R" unicode="R" horiz-adv-x="648" 
d="M157 714l303.999 -0.000976562c60 0 106.167 -15.167 138.5 -45.5s48.5 -74.5 48.5 -132.5c0 -53.333 -17.167 -99.166 -51.5 -137.499s-77.5 -57.5 -129.5 -57.5c32 -7.33301 55.167 -22.333 69.5 -45s21.5 -51 21.5 -85c0 -16 -1.66699 -41.833 -5 -77.5
s-5 -59.5 -5 -71.5s0.833008 -23.667 2.5 -35s4.83398 -20.333 9.50098 -27h-70c-3.33301 2 -5.83301 12 -7.5 30s-2.5 32.333 -2.5 43c0 12.667 1.66699 34.5 5 65.5s5 51.833 5 62.5c0 36.667 -7.66699 65.167 -23 85.5s-40.333 30.5 -75 30.5h-252l-67 -317h-68z
M152.999 374.999l240.999 0.000976562c54.667 0 99.334 13.167 134.001 39.5s52 65.166 52 116.499c0 42.667 -9.5 74.167 -28.5 94.5s-50.167 30.5 -93.5 30.5h-245z" />
    <glyph glyph-name="S" unicode="S" horiz-adv-x="630" 
d="M539 506c0 60 -15.502 102.498 -46.502 127.498s-78.5 37.5 -142.5 37.5c-49.333 0 -92 -12 -128 -36s-54 -59.667 -54 -107c0 -26.667 7.83301 -49.334 23.5 -68.001s47.834 -35.334 96.501 -50.001l76 -23c64 -19.333 112 -41 144 -65s48 -63 48 -117
c0 -51.333 -20.667 -100.833 -62 -148.5s-112.666 -71.5 -213.999 -71.5c-82.667 0 -148.167 20.833 -196.5 62.5s-72.5 104.167 -72.5 187.5h68c0 -67.333 17.333 -116.166 52 -146.499s86 -45.5 154 -45.5c52.667 0 99.667 13 141 39s62 64 62 114
c0 44 -14.167 74.167 -42.5 90.5s-73.166 33.5 -134.499 51.5l-70 21c-44.667 12.667 -79.334 32.334 -104.001 59.001s-37 62.334 -37 107.001c0 66.667 24.833 117.334 74.5 152.001s109.167 52 178.5 52c78 0 139.833 -17.5 185.5 -52.5s68.5 -91.833 68.5 -170.5h-68z
" />
    <glyph glyph-name="T" unicode="T" 
d="M81 714h558l-12 -58h-245l-143 -656h-68l143 656h-245z" />
    <glyph glyph-name="U" unicode="U" horiz-adv-x="704" 
d="M150 714l67.999 0.000976562l-95 -454c-4.66699 -19.333 -7 -40 -7 -62c0 -50.667 17.333 -89.167 52 -115.5s82.334 -39.5 143.001 -39.5c63.333 0 114.5 16.167 153.5 48.5s64.833 78.833 77.5 139.5l101 483h68l-102 -488c-17.333 -82 -52 -142.667 -104 -182
s-119.667 -59 -203 -59c-70.667 0 -130.667 16.667 -180 50s-74 85 -74 155c0 15.333 2 34.666 6 57.999z" />
    <glyph glyph-name="V" unicode="V" horiz-adv-x="593" 
d="M64 714h70l91 -656l368 656h74l-412 -714h-79z" />
    <glyph glyph-name="W" unicode="W" horiz-adv-x="907" 
d="M71 714h68l37 -635l306 635h82l49 -629l294 629h71l-344 -714h-74l-47 649l-314 -649h-75z" />
    <glyph glyph-name="X" unicode="X" horiz-adv-x="574" 
d="M260 372l-176 342h75l148 -300l259 300h81l-310 -353l186 -361h-72l-159 318l-280 -318h-80z" />
    <glyph glyph-name="Y" unicode="Y" horiz-adv-x="574" 
d="M598 714h83l-358 -426l-63 -288h-69l65 295l-190 419h72l161 -362z" />
    <glyph glyph-name="Z" unicode="Z" horiz-adv-x="574" 
d="M111 714h515l-12 -57l-571 -599h476l-13 -58h-556l13 60l569 596h-434z" />
    <glyph glyph-name="bracketleft" unicode="[" horiz-adv-x="241" 
d="M-28 -191l195 920h163l-11 -53h-98l-175 -814h97l-10 -53h-161z" />
    <glyph glyph-name="backslash" unicode="\" horiz-adv-x="333" 
d="M-58 729h59l411 -744h-59z" />
    <glyph glyph-name="bracketright" unicode="]" horiz-adv-x="241" 
d="M284 729l-195 -920h-163l11 53h98l175 814h-97l10 53h161z" />
    <glyph glyph-name="asciicircum" unicode="^" horiz-adv-x="600" 
d="M44 238l230 453h52l230 -453h-57l-200 390l-197 -390h-58z" />
    <glyph glyph-name="underscore" unicode="_" horiz-adv-x="500" 
d="M0 -125v50h500v-50h-500z" />
    <glyph glyph-name="grave" unicode="`" horiz-adv-x="185" 
d="M141 729l82 -144h-50l-106 144h74z" />
    <glyph glyph-name="a" unicode="a" horiz-adv-x="519" 
d="M374 276l-1.99902 2.00098c-8.66699 -11.333 -23.834 -19 -45.501 -23s-44.5 -6 -68.5 -6c-56 0 -104 -7.66699 -144 -23s-60 -47 -60 -95c0 -30.667 11 -53.834 33 -69.501s49.333 -23.5 82 -23.5c50 0 90.667 13.333 122 40s52.333 63.667 63 111zM62.001 362.001
c8 56 31.6689 98.166 71.002 126.499s88.333 42.5 147 42.5c44.667 0 85.667 -9 123 -27s56 -47.333 56 -88c0 -25.333 -4.16699 -55.5 -12.5 -90.5s-15 -64.5 -20 -88.5s-11.833 -54.833 -20.5 -92.5s-13 -63.167 -13 -76.5c0 -8 3.16699 -13.5 9.5 -16.5
s14.166 -4.5 23.499 -4.5l25 2l-9 -50c-15.333 -3.33301 -32.666 -5 -51.999 -5c-17.333 0 -30.833 4.83301 -40.5 14.5s-14.5 23.5 -14.5 41.5l2 28l-2 2c-17.333 -29.333 -42.333 -52.5 -75 -69.5s-67.334 -25.5 -104.001 -25.5c-50.667 0 -90.834 11.667 -120.501 35
s-44.5 59.333 -44.5 108c0 50 16.167 86.833 48.5 110.5s65 38.334 98 44.001s70.5 9.66699 112.5 12s71.833 5.66602 89.5 9.99902s31.5 13.833 41.5 28.5s15 38.334 15 71.001c0 28 -10.5 47.333 -31.5 58s-46.833 16 -77.5 16c-44 0 -80.5 -9 -109.5 -27
s-46.5 -47.667 -52.5 -89h-63z" />
    <glyph glyph-name="b" unicode="b" horiz-adv-x="574" 
d="M456 318c0 50 -12.167 89.167 -36.5 117.5s-61.5 42.5 -111.5 42.5c-64 0 -115.167 -30.333 -153.5 -91s-57.5 -124.667 -57.5 -192c0 -46 12 -83.667 36 -113s59 -44 105 -44c67.333 0 120.5 28.833 159.5 86.5s58.5 122.167 58.5 193.5zM141 714h62.999l-61 -289
c19.333 32 44.833 57.667 76.5 77s66.167 29 103.5 29c63.333 0 111.833 -19.833 145.5 -59.5s50.5 -91.5 50.5 -155.5c0 -85.333 -24.667 -161.833 -74 -229.5s-115.666 -101.5 -198.999 -101.5c-44 0 -81.667 11.667 -113 35s-51.333 56 -60 98l-27 -118h-57z" />
    <glyph glyph-name="c" unicode="c" horiz-adv-x="519" 
d="M424 355c0 38 -11.332 68.001 -33.999 90.001s-52.667 33 -90 33c-70.667 0 -125.5 -28 -164.5 -84s-58.5 -121.333 -58.5 -196c0 -48 12.167 -86.667 36.5 -116s60.166 -44 107.499 -44c40.667 0 75.667 11.667 105 35s51 54.666 65 93.999h63
c-19.333 -60 -48.833 -105.333 -88.5 -136s-90.5 -46 -152.5 -46c-62.667 0 -111.5 19.333 -146.5 58s-52.5 90.334 -52.5 155.001c0 87.333 25.5 164.666 76.5 231.999s118.833 101 203.5 101c58 0 104.667 -14.833 140 -44.5s53 -73.5 53 -131.5h-63z" />
    <glyph glyph-name="d" unicode="d" horiz-adv-x="574" 
d="M441 329c0 46 -12.668 82.333 -38.001 109s-60.666 40 -105.999 40c-67.333 0 -120.833 -29.833 -160.5 -89.5s-59.5 -125.167 -59.5 -196.5c0 -46.667 11.667 -84 35 -112s58 -42 104 -42c68 0 122.5 30.5 163.5 91.5s61.5 127.5 61.5 199.5zM437.999 0h-61.001l23 93
c-24 -36 -51 -63 -81 -81s-66.333 -27 -109 -27c-64 0 -112.667 19 -146 57s-50 89.333 -50 154c0 84.667 26.333 161.667 79 231s120.334 104 203.001 104c43.333 0 79.333 -8.83301 108 -26.5s48.667 -46.167 60 -85.5l64 295h63z" />
    <glyph glyph-name="e" unicode="e" horiz-adv-x="519" 
d="M80 241l-3.00098 -39.998c0 -48.667 12.667 -88 38 -118s62.666 -45 111.999 -45c40 0 75.167 11.833 105.5 35.5s51.5 54.5 63.5 92.5h63c-17.333 -58.667 -45.5 -103.5 -84.5 -134.5s-89.167 -46.5 -150.5 -46.5c-67.333 0 -119.166 19.5 -155.499 58.5
s-54.5 92.5 -54.5 160.5c0 87.333 25.333 163.666 76 228.999s118.334 98 203.001 98c61.333 0 109.333 -18.333 144 -55s52 -85.334 52 -146.001c0 -14 -0.333008 -28.5 -1 -43.5s-2 -30.167 -4 -45.5h-404zM424.999 294.002l0.999023 39.999
c0 42.667 -12.667 77.334 -38 104.001s-59.666 40 -102.999 40c-49.333 0 -91.5 -17.833 -126.5 -53.5s-58.5 -79.167 -70.5 -130.5h337z" />
    <glyph glyph-name="f" unicode="f" horiz-adv-x="259" 
d="M284 463l-101 -0.000976562l-102 -463h-63l102 463h-90l12 53h89l16 75c8.66699 40.667 23.5 71.334 44.5 92.001s52.167 31 93.5 31c14.667 0 26.5 -0.333008 35.5 -1s18.833 -2.66699 29.5 -6l-11 -52l-39 6c-28.667 0 -49.5 -5.5 -62.5 -16.5
s-22.5 -29.833 -28.5 -56.5l-15 -72h102z" />
    <glyph glyph-name="g" unicode="g" 
d="M223 64c60.667 0 110.168 26.833 148.501 80.5s57.5 112.167 57.5 175.5c0 48.667 -11.333 87.167 -34 115.5s-58.334 42.5 -107.001 42.5c-60 0 -109 -26.333 -147 -79s-57 -110.334 -57 -173.001c0 -47.333 11.667 -86.166 35 -116.499s58 -45.5 104 -45.5zM438.001 54
c-20 -93.333 -48.667 -159.999 -86 -199.999s-95 -60 -173 -60c-58 0 -105.667 13.333 -143 40s-56 69 -56 127h63c0 -40.667 13.5 -69.834 40.5 -87.501s61.833 -26.5 104.5 -26.5c68.667 0 114 21 136 63s44 106.667 66 194l-2 2c-17.333 -29.333 -42 -52.5 -74 -69.5
s-66 -25.5 -102 -25.5c-60.667 0 -107.667 19.5 -141 58.5s-50 89.5 -50 151.5c0 81.333 24.333 153.333 73 216s112.334 94 191.001 94c41.333 0 78.166 -10.5 110.499 -31.5s51.833 -50.833 58.5 -89.5l24 106h58z" />
    <glyph glyph-name="h" unicode="h" horiz-adv-x="537" 
d="M143 714l62.999 -0.00195312l-63 -292c19.333 31.333 45.5 57.333 78.5 78s67.833 31 104.5 31c48 0 86 -11.167 114 -33.5s42 -57.5 42 -105.5c0 -15.333 -2.66699 -35.666 -8 -60.999l-71 -331h-63l72 333c4.66699 18.667 7 36 7 52c0 32 -10.167 55.5 -30.5 70.5
s-46.166 22.5 -77.499 22.5c-46.667 0 -88.5 -19.167 -125.5 -57.5s-62.5 -90.166 -76.5 -155.499l-57 -265h-63z" />
    <glyph glyph-name="i" unicode="i" horiz-adv-x="185" 
d="M100 516h63l-111 -516h-63zM143 714h63l-22 -101h-63z" />
    <glyph glyph-name="j" unicode="j" horiz-adv-x="185" 
d="M100 516h63.002l-129 -604c-8.66699 -36 -22.334 -62.167 -41.001 -78.5s-47.334 -24.5 -86.001 -24.5c-6 0 -14.333 0.833008 -25 2.5s-17 2.5 -19 2.5l12 52c4 0 10 -0.666992 18 -2s14 -2 18 -2c18 0 31.5 4.5 40.5 13.5s15.833 21.833 20.5 38.5zM142.002 714h64
l-22 -101h-63z" />
    <glyph glyph-name="k" unicode="k" horiz-adv-x="463" 
d="M141 714h63l-96 -448l2 -2l302 252h84l-244 -199l156 -317h-69l-137 279l-110 -92l-40 -187h-63z" />
    <glyph glyph-name="l" unicode="l" horiz-adv-x="185" 
d="M143 714h63l-154 -714h-63z" />
    <glyph glyph-name="m" unicode="m" horiz-adv-x="833" 
d="M100 516l58.001 0.000976562l-20 -90l2 -2c19.333 31.333 45.166 57 77.499 77s67.166 30 104.499 30c76 0 117.667 -36.667 125 -110c22.667 34 49.5 60.833 80.5 80.5s65.167 29.5 102.5 29.5c47.333 0 83 -12.333 107 -37s36 -57.667 36 -99
c0 -7.33301 -0.333008 -15 -1 -23s-2.66699 -20 -6 -36l-72 -336h-63l73 338c4 18 6 35.333 6 52c0 58.667 -32.667 88 -98 88c-50.667 0 -90.667 -21.333 -120 -64s-52 -101.334 -68 -176.001l-51 -238h-63l72 336c4 17.333 6 34 6 50c0 27.333 -7 49.5 -21 66.5
s-36 25.5 -66 25.5c-44.667 0 -84.667 -20.5 -120 -61.5s-59.666 -92.5 -72.999 -154.5l-56 -262h-63z" />
    <glyph glyph-name="n" unicode="n" horiz-adv-x="537" 
d="M100 516l57.999 -0.00195312l-18 -94c21.333 32 48.5 58.167 81.5 78.5s67.833 30.5 104.5 30.5c48 0 86 -11.167 114 -33.5s42 -57.5 42 -105.5c0 -15.333 -2.66699 -35.666 -8 -60.999l-71 -331h-63l72 333c4.66699 18.667 7 36 7 52c0 32 -10.167 55.5 -30.5 70.5
s-46.166 22.5 -77.499 22.5c-46.667 0 -88.5 -19.167 -125.5 -57.5s-62.5 -90.166 -76.5 -155.499l-57 -265h-63z" />
    <glyph glyph-name="o" unicode="o" 
d="M506 329c0 -94 -24.999 -174.833 -74.999 -242.5s-120.333 -101.5 -211 -101.5c-65.333 0 -116 19.333 -152 58s-54 91 -54 157c0 90 26 167.667 78 233s122 98 210 98c61.333 0 110.666 -18 147.999 -54s56 -85.333 56 -148zM443.001 316
c0 49.333 -13 88.666 -39 117.999s-63.667 44 -113 44c-64.667 0 -116.5 -28.333 -155.5 -85s-58.5 -119 -58.5 -187c0 -51.333 13.167 -92.166 39.5 -122.499s64.833 -45.5 115.5 -45.5c64 0 115.167 29.5 153.5 88.5s57.5 122.167 57.5 189.5z" />
    <glyph glyph-name="p" unicode="p" horiz-adv-x="574" 
d="M102 187c0 -46 12.668 -82.333 38.001 -109s60.666 -40 105.999 -40c67.333 0 120.833 29.833 160.5 89.5s59.5 125.167 59.5 196.5c0 46.667 -11.667 84 -35 112s-58 42 -104 42c-68 0 -122.5 -30.5 -163.5 -91.5s-61.5 -127.5 -61.5 -199.5zM106.001 516h57.002
l-20 -93c24 36 51 63 81 81s66.333 27 109 27c64 0 112.667 -19 146 -57s50 -89.333 50 -154c0 -84.667 -26.333 -161.667 -79 -231s-120.334 -104 -203.001 -104c-44 0 -80.833 9.5 -110.5 28.5s-47.834 48.833 -54.501 89.5l-65 -294h-63z" />
    <glyph glyph-name="q" unicode="q" horiz-adv-x="574" 
d="M85 198c0 -50 12.167 -89.167 36.5 -117.5s61.5 -42.5 111.5 -42.5c64 0 115.167 30.333 153.5 91s57.5 124.667 57.5 192c0 46 -12 83.667 -36 113s-59 44 -105 44c-67.333 0 -120.5 -28.833 -159.5 -86.5s-58.5 -122.167 -58.5 -193.5zM402 -191h-62.999l61 282
c-20.667 -32.667 -46.667 -58.5 -78 -77.5s-66 -28.5 -104 -28.5c-63.333 0 -111.833 19.833 -145.5 59.5s-50.5 91.5 -50.5 155.5c0 85.333 24.667 161.833 74 229.5s115.666 101.5 198.999 101.5c43.333 0 81 -10.667 113 -32s53.333 -50 64 -86l24 103h58z" />
    <glyph glyph-name="r" unicode="r" horiz-adv-x="315" 
d="M100 516l57.001 0.000976562l-26 -119c23.333 41.333 49.666 72.666 78.999 93.999s66 32 110 32l34 -1l-14 -63l-36 1c-52.667 0 -95.167 -18 -127.5 -54s-54.5 -81.333 -66.5 -136l-58 -270h-63z" />
    <glyph glyph-name="s" unicode="s" horiz-adv-x="481" 
d="M62 168c0 -46 13.833 -79.166 41.5 -99.499s62.5 -30.5 104.5 -30.5c33.333 0 63.333 8.16699 90 24.5s40 39.833 40 70.5c0 34.667 -13.5 58.667 -40.5 72s-61.5 28.166 -103.5 44.499s-74.667 34.166 -98 53.499s-35 48.333 -35 87c0 46 19.667 81 59 105
s83.333 36 132 36c56.667 0 101.5 -13.333 134.5 -40s49.5 -68.667 49.5 -126h-63c0 38 -10.833 66.333 -32.5 85s-51.167 28 -88.5 28c-34 0 -63.833 -6.66699 -89.5 -20s-38.5 -36 -38.5 -68c0 -22 9 -39.667 27 -53s50.667 -29.333 98 -48s84.5 -37.167 111.5 -55.5
s40.5 -48.5 40.5 -90.5c0 -53.333 -20.667 -93 -62 -119s-90 -39 -146 -39c-54 0 -99.833 15.333 -137.5 46s-56.5 76.334 -56.5 137.001h63z" />
    <glyph glyph-name="t" unicode="t" horiz-adv-x="296" 
d="M43 516l92.999 0.000976562l33 156h63l-33 -156h103l-10 -53h-105l-71 -331c-2 -9.33301 -3.66699 -18.333 -5 -27s-2 -16 -2 -22c0 -10.667 2.5 -19.334 7.5 -26.001s13.5 -10 25.5 -10c24 0 48.667 2 74 6l-11 -55c-19.333 -2 -31.666 -3.16699 -36.999 -3.5
s-14.333 -0.5 -27 -0.5c-28.667 0 -51.667 5.16699 -69 15.5s-26 29.833 -26 58.5c0 14 1 25 3 33s3.33301 14.667 4 20l71 342h-93z" />
    <glyph glyph-name="u" unicode="u" horiz-adv-x="537" 
d="M402 0l-57.999 0.00195312l18 94c-21.333 -32 -48.5 -58.167 -81.5 -78.5s-67.833 -30.5 -104.5 -30.5c-48 0 -86 11.167 -114 33.5s-42 57.5 -42 105.5c0 15.333 2.66699 35.666 8 60.999l71 331h63l-72 -333c-4.66699 -18.667 -7 -36 -7 -52
c0 -32 10.167 -55.5 30.5 -70.5s46.166 -22.5 77.499 -22.5c46.667 0 88.5 19.167 125.5 57.5s62.5 90.166 76.5 155.499l57 265h63z" />
    <glyph glyph-name="v" unicode="v" horiz-adv-x="463" 
d="M35 516h66l61 -445l244 445h69l-291 -516h-68z" />
    <glyph glyph-name="w" unicode="w" horiz-adv-x="741" 
d="M30 516h66l41 -440l215 440h74l35 -436l221 436h67l-271 -516h-68l-37 433l-214 -433h-69z" />
    <glyph glyph-name="x" unicode="x" horiz-adv-x="463" 
d="M188 272l-121 244h72l94 -203l178 203h76l-227 -250l137 -266h-72l-110 225l-198 -225h-75z" />
    <glyph glyph-name="y" unicode="y" horiz-adv-x="463" 
d="M-43 -135l53.999 -3c17.333 0 32.833 5.33301 46.5 16s25.167 24 34.5 40l47 82l-95 516h66l74 -438l240 438h68l-367 -638c-26 -46 -67.667 -69 -125 -69c-6.66699 0 -16.667 0.833008 -30 2.5s-21.666 2.5 -24.999 2.5z" />
    <glyph glyph-name="z" unicode="z" horiz-adv-x="426" 
d="M55 516h388l-11 -50l-401 -413h331l-11 -53h-409l11 51l399 412h-308z" />
    <glyph glyph-name="braceleft" unicode="{" horiz-adv-x="333" 
d="M138 -191c-20.667 0 -38.665 7.66602 -53.998 22.999s-23 36 -23 62c0 11.333 1.66699 24.666 5 39.999l31 148c4 20 6.83301 35.833 8.5 47.5s2.5 23.834 2.5 36.501c0 23.333 -4 41.833 -12 55.5s-20.667 20.5 -38 20.5l11 53c26.667 0 48.5 14.833 65.5 44.5
s30.5 68.167 40.5 115.5l31 149c7.33301 38.667 21.166 69.167 41.499 91.5s44.5 33.5 72.5 33.5h50l-11 -53h-23c-17.333 0 -31.5 -6.33301 -42.5 -19s-20.833 -40.667 -29.5 -84l-29 -141c-7.33301 -36 -21 -69.333 -41 -100s-41.667 -51.334 -65 -62.001
c13.333 -12 23.666 -27.167 30.999 -45.5s11 -38.833 11 -61.5c0 -7.33301 -0.5 -15.5 -1.5 -24.5s-2.83301 -19.833 -5.5 -32.5l-27 -129c-2.66699 -11.333 -5.5 -24.666 -8.5 -39.999s-4.5 -25.666 -4.5 -30.999c0 -12 2.5 -22.333 7.5 -31s15.5 -13 31.5 -13h26l-11 -53
h-40z" />
    <glyph glyph-name="bar" unicode="|" horiz-adv-x="222" 
d="M85 729h53v-744h-53v744z" />
    <glyph glyph-name="braceright" unicode="}" horiz-adv-x="333" 
d="M171 729c20.667 0 38.665 -7.66602 53.998 -22.999s23 -36 23 -62c0 -11.333 -1.66699 -24.666 -5 -39.999l-31 -148c-4 -20 -6.83301 -35.833 -8.5 -47.5s-2.5 -23.834 -2.5 -36.501c0 -23.333 4 -41.833 12 -55.5s20.667 -20.5 38 -20.5l-11 -53
c-26.667 0 -48.5 -14.833 -65.5 -44.5s-30.5 -68.167 -40.5 -115.5l-31 -149c-7.33301 -38.667 -21.166 -69.167 -41.499 -91.5s-44.5 -33.5 -72.5 -33.5h-50l11 53h23c17.333 0 31.5 6.33301 42.5 19s20.833 40.667 29.5 84l29 141c7.33301 36 21 69.333 41 100
s41.667 51.334 65 62.001c-13.333 12 -23.666 27.167 -30.999 45.5s-11 38.833 -11 61.5c0 7.33301 0.5 15.5 1.5 24.5s2.83301 19.833 5.5 32.5l27 129c2 11.333 4.66699 24.666 8 39.999s5 25.666 5 30.999c0 12 -2.5 22.333 -7.5 31s-15.5 13 -31.5 13h-26l11 53h40z" />
    <glyph glyph-name="asciitilde" unicode="~" horiz-adv-x="600" 
d="M531 279c-20.667 -28.667 -39.668 -50.166 -57.001 -64.499s-40 -21.5 -68 -21.5c-14 0 -29 2.16699 -45 6.5s-36.833 12.666 -62.5 24.999s-46 21 -61 26s-31.167 7.5 -48.5 7.5c-20 0 -36.667 -6.33301 -50 -19s-24.666 -29.334 -33.999 -50.001l-36 36
c13.333 26 29.666 46.833 48.999 62.5s44.666 23.5 75.999 23.5c16 0 33.667 -3 53 -9s42.333 -14.833 69 -26.5s46.334 -19.5 59.001 -23.5s23.334 -6 32.001 -6c18 0 33.5 5.83301 46.5 17.5s26.833 28.834 41.5 51.501z" />
    <glyph glyph-name="nonbreakingspace" unicode="&#xa0;" horiz-adv-x="250" 
 />
    <glyph glyph-name="exclamdown" unicode="&#xa1;" horiz-adv-x="278" 
d="M119 410l23 106h85l-24 -106h-84zM165 345l-54 -313l-46 -223h-67l46 225l84 311h37z" />
    <glyph glyph-name="cent" unicode="&#xa2;" 
d="M300 478c-63.333 -6.66699 -112.667 -37.668 -148 -93.001s-53 -117.666 -53 -186.999c0 -41.333 9 -75.833 27 -103.5s44.667 -45.167 80 -52.5zM210.999 -117.001h-39.002l23 106c-50.667 7.33301 -89.834 29.5 -117.501 66.5s-41.5 84.5 -41.5 142.5
c0 86 25.333 163 76 231s117.334 102 200.001 102l19 87h38l-19 -89c48.667 -6 87.334 -23.5 116.001 -52.5s43 -69.5 43 -121.5h-63c0 35.333 -9.66699 63.833 -29 85.5s-45.333 34.167 -78 37.5l-94 -440c40 0 74.333 11.5 103 34.5s50.334 54.5 65.001 94.5h63
c-19.333 -60 -48.833 -105.333 -88.5 -136s-90.5 -46 -152.5 -46z" />
    <glyph glyph-name="sterling" unicode="&#xa3;" 
d="M43 362l69.9961 0.00292969c-9.33301 25.333 -16 47.5 -20 66.5s-6 40.167 -6 63.5c0 73.333 22.833 131.166 68.5 173.499s102.5 63.5 170.5 63.5c63.333 0 115 -19 155 -57s60 -88 60 -150c0 -10.667 -0.333008 -18.667 -1 -24h-63c0 54 -12 97.167 -36 129.5
s-61 48.5 -111 48.5c-51.333 0 -94.166 -15.167 -128.499 -45.5s-51.5 -74.833 -51.5 -133.5c0 -47.333 8.66699 -92.333 26 -135h158l-6 -34h-143c3.33301 -13.333 6.16602 -26.833 8.49902 -40.5s3.5 -26.167 3.5 -37.5c0 -44 -13.167 -79.833 -39.5 -107.5
s-56.166 -55.834 -89.499 -84.501l2 -2c35.333 15.333 70.333 23 105 23c13.333 0 26.5 -2 39.5 -6s25.667 -8.33301 38 -13s26.5 -9.5 42.5 -14.5s31 -7.5 45 -7.5c24 0 44.833 4.66699 62.5 14s37.5 24.333 59.5 45l24 -50c-24 -22.667 -48.5 -38.667 -73.5 -48
s-54.5 -14 -88.5 -14c-12 0 -25.167 2 -39.5 6s-30.5 9.33301 -48.5 16s-33.667 11.5 -47 14.5s-28.666 4.5 -45.999 4.5c-21.333 0 -41.666 -3.33301 -60.999 -10s-40 -16.334 -62 -29.001l-24 55c54.667 44 91.334 81.833 110.001 113.5s28 64.167 28 97.5
c0 13.333 -1 26 -3 38c-4 16.667 -6.66699 29 -8 37h-87z" />
    <glyph glyph-name="currency" unicode="&#xa4;" 
d="M86 192c-37.333 43.333 -56.001 94.667 -56.001 154c0 30 4.5 57.667 13.5 83s22.833 49.333 41.5 72l-55 55l38 38l55 -55c45.333 36.667 97 55 155 55s109.667 -18.333 155 -55l55 55l38 -38l-55 -55c36.667 -44 55 -95.667 55 -155c0 -58 -18.333 -109.667 -55 -155
l55 -55l-38 -38l-56 56c-43.333 -37.333 -94.666 -56 -153.999 -56s-111 18.333 -155 55l-55 -55l-38 38zM277.999 161.001c51.333 0 95 18 131 54s54 79.667 54 131s-18 95 -54 131s-79.667 54 -131 54s-95 -18 -131 -54s-54 -79.667 -54 -131s18 -95 54 -131
s79.667 -54 131 -54z" />
    <glyph glyph-name="yen" unicode="&#xa5;" 
d="M633 714l-281 -365h111l-10 -45h-136l-12 -16l-15 -67h146l-10 -45h-146l-38 -176h-63l39 176h-132l10 45h132l16 74l-3 9h-128l10 45h100l-139 365h64l136 -365l274 365h75z" />
    <glyph glyph-name="section" unicode="&#xa7;" 
d="M337 346c-11.333 11.333 -32.5 31.332 -63.5 59.999s-51.167 48.334 -60.5 59.001c-24 0 -47.5 -10.833 -70.5 -32.5s-34.5 -47.167 -34.5 -76.5c0 -18 8.33301 -39.333 25 -64s38.667 -50.667 66 -78l111 -112c30.667 4 56.167 15.333 76.5 34s30.5 43 30.5 73
c0 20 -7.33301 41.833 -22 65.5s-34 47.5 -58 71.5zM446 553.999c0 37.333 -8.83496 66.999 -26.502 88.999s-45.167 33 -82.5 33c-30 0 -56 -7.5 -78 -22.5s-33 -39.5 -33 -73.5c0 -29.333 12.333 -56.333 37 -81s58.834 -57 102.501 -97s73.667 -73.833 90 -101.5
s24.5 -54.5 24.5 -80.5c0 -42.667 -13 -78 -39 -106s-60.667 -44.667 -104 -50c10 -13.333 17.833 -27.166 23.5 -41.499s8.5 -29.166 8.5 -44.499c0 -48 -18 -84.667 -54 -110s-79 -38 -129 -38c-53.333 0 -96 17 -128 51s-48 78 -48 132h63
c-0.666992 -4 -1 -9.66699 -1 -17c0 -33.333 11.5 -60.5 34.5 -81.5s52.5 -31.5 88.5 -31.5c28.667 0 54.334 7.83301 77.001 23.5s34 36.834 34 63.501c0 33.333 -11.167 62.166 -33.5 86.499s-57.666 59.5 -105.999 105.5s-80.666 83 -96.999 111s-24.5 55.667 -24.5 83
c0 40 13.667 73.667 41 101s61.666 43.666 102.999 48.999c-8.66699 12.667 -15.167 25.167 -19.5 37.5s-6.5 25.5 -6.5 39.5c0 44 16.333 79.333 49 106s73.667 40 123 40c55.333 0 98.166 -14.167 128.499 -42.5s45.5 -72.5 45.5 -132.5h-63z" />
    <glyph glyph-name="dieresis" unicode="&#xa8;" horiz-adv-x="185" 
d="M215 703h64l-20 -102h-63zM56 703h64l-20 -102h-63z" />
    <glyph glyph-name="copyright" unicode="&#xa9;" horiz-adv-x="800" 
d="M400 -15c-105.333 0 -193.666 35.667 -264.999 107s-107 159.666 -107 264.999c0 104 35.667 192 107 264s159.666 108 264.999 108s193.666 -35.667 264.999 -107s107 -159.666 107 -264.999c0 -104 -35.667 -192 -107 -264s-159.666 -108 -264.999 -108zM400 676
c-89.333 0 -164 -30.667 -224 -92s-90 -137 -90 -227s30 -165.667 90 -227s134.667 -92 224 -92s164 30.667 224 92s90 137 90 227s-30 165.667 -90 227s-134.667 92 -224 92zM543 435c-6 31.333 -20.834 56.833 -44.501 76.5s-53.167 29.5 -88.5 29.5
c-52 0 -92.5 -17.167 -121.5 -51.5s-43.5 -78.5 -43.5 -132.5s14.333 -98.167 43 -132.5s69.334 -51.5 122.001 -51.5c35.333 0 64.833 9.83301 88.5 29.5s38.5 45.167 44.5 76.5h51c-6.66699 -47.333 -27 -84.333 -61 -111s-75.333 -40 -124 -40
c-66 0 -118.667 21.333 -158 64s-59 97.667 -59 165s19.333 122.333 58 165s91.667 64 159 64c48.667 0 90 -13.333 124 -40s54.333 -63.667 61 -111h-51z" />
    <glyph glyph-name="ordfeminine" unicode="&#xaa;" horiz-adv-x="311" 
d="M277 546l-3.00098 0.999023c-4.66699 -6.66699 -11.667 -10.667 -21 -12s-31.666 -3.83301 -66.999 -7.5s-63.333 -9 -84 -16s-31 -24.5 -31 -52.5c0 -16.667 7.16699 -29.5 21.5 -38.5s31.5 -13.5 51.5 -13.5c32.667 0 59.167 7.83301 79.5 23.5
s33.833 37.834 40.5 66.501zM69.999 598.999c5.33301 35.333 21.332 61.999 47.999 79.999s60 27 100 27s69.333 -7.16699 88 -21.5s28 -31.833 28 -52.5c0 -14.667 -2 -31.667 -6 -51c-5.33301 -20.667 -10.333 -41.334 -15 -62.001l-14 -59.5
c-4.66699 -19 -7 -29.167 -7 -30.5c0 -8.66699 7 -13 21 -13l16 1l-6 -37l-33 -3c-24.667 0 -37 11.667 -37 35l3 17c-12.667 -19.333 -29.667 -34.333 -51 -45s-44 -16 -68 -16c-36 0 -63.833 7 -83.5 21s-29.5 37.333 -29.5 70s10.5 56.334 31.5 71.001
s42.667 23.834 65 27.501s46.5 6 72.5 7s48.167 3.66699 66.5 8s27.5 21.5 27.5 51.5c0 15.333 -7 26.333 -21 33s-29 10 -45 10c-29.333 0 -53.666 -5.33301 -72.999 -16s-31 -28 -35 -52h-43z" />
    <glyph glyph-name="guillemotleft" unicode="&#xab;" horiz-adv-x="426" 
d="M50 257l15 64l159 113l-15 -68l-116 -84l75 -102l-12 -63zM210 257l15 64l159 113l-15 -68l-116 -84l75 -102l-12 -63z" />
    <glyph glyph-name="logicalnot" unicode="&#xac;" horiz-adv-x="600" 
d="M499 325h-450v53h503v-267h-53v214z" />
    <glyph glyph-name="registered" unicode="&#xae;" horiz-adv-x="800" 
d="M772 357c0 -104 -35.667 -192 -107 -264s-159.666 -108 -264.999 -108s-193.666 35.667 -264.999 107s-107 159.666 -107 264.999c0 104 35.667 192 107 264s159.666 108 264.999 108s193.666 -35.667 264.999 -107s107 -159.666 107 -264.999zM86 357
c0 -90 30 -165.667 90 -227s134.667 -92 224 -92s164 30.667 224 92s90 137 90 227s-30 165.667 -90 227s-134.667 92 -224 92s-164 -30.667 -224 -92s-90 -137 -90 -227zM318 142l-52.999 -0.000976562v430h165c48 0 83.333 -10 106 -30s34 -49.667 34 -89
c0 -36 -9.83301 -63.667 -29.5 -83s-45.834 -31.666 -78.501 -36.999l128 -191h-62l-121 191h-89v-191zM388.001 377.999c42.667 0 74.833 4.33203 96.5 12.999s32.5 29.334 32.5 62.001c0 27.333 -9.5 46.5 -28.5 57.5s-43.5 16.5 -73.5 16.5h-97v-149h70z" />
    <glyph glyph-name="degree" unicode="&#xb0;" horiz-adv-x="400" 
d="M261 706c40 0 74 -14 102 -42s42 -62 42 -102s-14 -74 -42 -102s-62 -42 -102 -42s-74 14 -102 42s-42 62 -42 102s14 74 42 102s62 42 102 42zM261 457c29.333 0 54.166 10.167 74.499 30.5s30.5 45.166 30.5 74.499s-10.167 54.166 -30.5 74.499
s-45.166 30.5 -74.499 30.5s-54.166 -10.167 -74.499 -30.5s-30.5 -45.166 -30.5 -74.499s10.167 -54.166 30.5 -74.499s45.166 -30.5 74.499 -30.5z" />
    <glyph glyph-name="plusminus" unicode="&#xb1;" horiz-adv-x="600" 
d="M274 503h53v-180h225v-53h-225v-180h-53v180h-224v53h224v180zM49 53h503v-53h-503v53z" />
    <glyph glyph-name="acute" unicode="&#xb4;" horiz-adv-x="185" 
d="M200 729h81l-144 -144h-53z" />
    <glyph glyph-name="mu" unicode="&#xb5;" horiz-adv-x="537" 
d="M402 0l-58 0.000976562l18 94c-21.333 -32 -48.5 -58.167 -81.5 -78.5s-67.833 -30.5 -104.5 -30.5c-55.333 0 -95.666 13.667 -120.999 41l-45 -217h-61l150 707h63l-72 -333c-4.66699 -18.667 -7 -36 -7 -52c0 -32 10.167 -55.5 30.5 -70.5s46.166 -22.5 77.499 -22.5
c46.667 0 88.5 19.167 125.5 57.5s62.5 90.166 76.5 155.499l57 265h63z" />
    <glyph glyph-name="paragraph" unicode="&#xb6;" horiz-adv-x="600" 
d="M241 328c-50.667 0 -91.833 14.5 -123.5 43.5s-47.5 65.833 -47.5 110.5c0 13.333 3.83301 38.333 11.5 75s34.5 72 80.5 106s104.333 51 175 51h217l-185 -891h-53l176 847h-127l-176 -847h-53z" />
    <glyph glyph-name="cedilla" unicode="&#xb8;" horiz-adv-x="185" 
d="M-71 -153c16 -6.66699 29.167 -11.1689 39.5 -13.502s23.166 -3.5 38.499 -3.5c16 0 29.333 3 40 9s16 16.667 16 32c0 13.333 -5.16699 23.5 -15.5 30.5s-23.166 10.5 -38.499 10.5c-14 0 -27 -3 -39 -9l-16 18l73 85h37l-58 -62l2 -2c8 2 13.5 3.16699 16.5 3.5
s9.5 0.5 19.5 0.5c22 0 39.833 -5.66699 53.5 -17s20.5 -28.666 20.5 -51.999c0 -25.333 -11 -45.166 -33 -59.499s-46.667 -21.5 -74 -21.5c-32.667 0 -64.667 7.33301 -96 22z" />
    <glyph glyph-name="ordmasculine" unicode="&#xba;" horiz-adv-x="334" 
d="M36 502c0 56.667 17.001 104.834 51.001 144.501s81 59.5 141 59.5c42 0 75.167 -10.833 99.5 -32.5s36.5 -52.834 36.5 -93.501c0 -58.667 -16.5 -108.667 -49.5 -150s-79.833 -62 -140.5 -62c-44.667 0 -78.834 11.833 -102.501 35.5s-35.5 56.5 -35.5 98.5z
M83.001 506c0 -30.667 8.33105 -54.832 24.998 -72.499s41.334 -26.5 74.001 -26.5c40.667 0 73.334 17.667 98.001 53s37 72.666 37 111.999c0 28.667 -8.33301 51.667 -25 69s-40.667 26 -72 26c-40.667 0 -73.667 -17 -99 -51s-38 -70.667 -38 -110z" />
    <glyph glyph-name="guillemotright" unicode="&#xbb;" horiz-adv-x="426" 
d="M349 294l-15 -64l-159 -113l15 68l116 84l-75 102l12 63zM189 294l-15 -64l-159 -113l15 68l116 84l-75 102l12 63z" />
    <glyph glyph-name="questiondown" unicode="&#xbf;" horiz-adv-x="537" 
d="M306 341c-7.33301 -52.667 -21.168 -92.001 -41.501 -118.001s-51.666 -53.667 -93.999 -83s-74 -56.833 -95 -82.5s-31.5 -54.5 -31.5 -86.5c0 -39.333 12.167 -69.833 36.5 -91.5s56.833 -32.5 97.5 -32.5c51.333 0 93 17.333 125 52s48 78.334 48 131.001h63
c0 -72 -21.667 -129.333 -65 -172s-101.333 -64 -174 -64c-54 0 -99.833 14.667 -137.5 44s-56.5 70.666 -56.5 123.999c0 38 10.167 73.5 30.5 106.5s55.333 65.667 105 98s81 59.333 94 81s23.833 52.834 32.5 93.501h63zM268.998 515.999h85l-24 -106h-84z" />
    <glyph glyph-name="Agrave" unicode="&#xc0;" horiz-adv-x="630" 
d="M362 714h74l130 -714h-71l-36 222h-326l-132 -222h-76zM167 280h282l-61 376zM364 907l82 -144h-50l-106 144h74z" />
    <glyph glyph-name="Aacute" unicode="&#xc1;" horiz-adv-x="630" 
d="M362 714h74l130 -714h-71l-36 222h-326l-132 -222h-76zM167 280h282l-61 376zM441 907h81l-144 -144h-53z" />
    <glyph glyph-name="Acircumflex" unicode="&#xc2;" horiz-adv-x="630" 
d="M362 714h74l130 -714h-71l-36 222h-326l-132 -222h-76zM167 280h282l-61 376zM299 763h-61l136 144h63l86 -144h-57l-66 106z" />
    <glyph glyph-name="Atilde" unicode="&#xc3;" horiz-adv-x="630" 
d="M362 714h74l130 -714h-71l-36 222h-326l-132 -222h-76zM167 280h282l-61 376zM555 879c-3.33301 -14 -6.99609 -26.1689 -10.9961 -36.502s-10 -20.666 -18 -30.999s-16.833 -18.5 -26.5 -24.5s-20.834 -9 -33.501 -9s-23.5 1.83301 -32.5 5.5
s-21.333 9.83398 -37 18.501l-41 22.5c-11.667 6.33301 -21.5 9.5 -29.5 9.5c-11.333 0 -21.5 -6 -30.5 -18s-14.833 -24.667 -17.5 -38h-41c8 29.333 19.167 53.5 33.5 72.5s34.166 28.5 59.499 28.5c11.333 0 22.166 -2.16699 32.499 -6.5s23.666 -11.5 39.999 -21.5
s29 -17.167 38 -21.5s18.833 -6.5 29.5 -6.5c9.33301 0 18.333 6.33301 27 19s14.667 25 18 37h40z" />
    <glyph glyph-name="Adieresis" unicode="&#xc4;" horiz-adv-x="630" 
d="M362 714h74l130 -714h-71l-36 222h-326l-132 -222h-76zM167 280h282l-61 376zM456 881h64l-20 -102h-63zM297 881h64l-20 -102h-63z" />
    <glyph glyph-name="Aring" unicode="&#xc5;" horiz-adv-x="630" 
d="M362 714h74l130 -714h-71l-36 222h-326l-132 -222h-76zM167 280h282l-61 376zM466 852c0 16.667 -6.66699 31.668 -20 45.001s-28.666 20 -45.999 20s-32.5 -6.5 -45.5 -19.5s-19.5 -28.167 -19.5 -45.5c0 -18 6.5 -33.5 19.5 -46.5s28.167 -19.5 45.5 -19.5
s32.666 6.66699 45.999 20s20 28.666 20 45.999zM301 852.001c0 26.667 9.83105 49.832 29.498 69.499s42.834 29.5 69.501 29.5s50 -9.66699 70 -29s30 -42.666 30 -69.999c0 -28 -9.66699 -51.667 -29 -71s-43 -29 -71 -29c-27.333 0 -50.666 9.66699 -69.999 29
s-29 43 -29 71z" />
    <glyph glyph-name="AE" unicode="&#xc6;" horiz-adv-x="889" 
d="M453 714h498l-13 -58h-357l-56 -258h335l-13 -58h-334l-61 -282h369l-13 -58h-437l49 226h-255l-166 -226h-80zM208 284h224l81 372h-30z" />
    <glyph glyph-name="Ccedilla" unicode="&#xc7;" horiz-adv-x="704" 
d="M648 244c-17.333 -77.333 -53.333 -139.835 -108 -187.502s-125.667 -71.5 -213 -71.5l-23 1l-39 -42l2 -2c8 2 13.5 3.16699 16.5 3.5s9.5 0.5 19.5 0.5c22 0 39.833 -5.66699 53.5 -17s20.5 -28.666 20.5 -51.999c0 -25.333 -11 -45.166 -33 -59.499
s-46.667 -21.5 -74 -21.5c-32.667 0 -64.667 7.33301 -96 22l14 29c16 -6.66699 29.167 -11.167 39.5 -13.5s23.166 -3.5 38.499 -3.5c16 0 29.333 3 40 9s16 16.667 16 32c0 13.333 -5.16699 23.5 -15.5 30.5s-23.166 10.5 -38.499 10.5c-14 0 -27 -3 -39 -9l-16 18l60 70
c-75.333 10 -134 41.667 -176 95s-63 121 -63 203c0 120 35.333 223.333 106 310s164.667 130 282 130c78 0 141.833 -21 191.5 -63s74.5 -101.333 74.5 -178h-68c0 58.667 -18 103.834 -54 135.501s-84.333 47.5 -145 47.5c-101.333 0 -179.833 -38.333 -235.5 -115
s-83.5 -167.667 -83.5 -273c0 -74 20.833 -132.5 62.5 -175.5s99.5 -64.5 173.5 -64.5c58 0 108.333 17.667 151 53s73 84.666 91 147.999h68z" />
    <glyph glyph-name="Egrave" unicode="&#xc8;" horiz-adv-x="574" 
d="M157 714h479l-13 -58h-410l-55 -258h383l-13 -58h-382l-60 -282h420l-13 -58h-488zM381 907l82 -144h-50l-106 144h74z" />
    <glyph glyph-name="Eacute" unicode="&#xc9;" horiz-adv-x="574" 
d="M157 714h479l-13 -58h-410l-55 -258h383l-13 -58h-382l-60 -282h420l-13 -58h-488zM440 907h81l-144 -144h-53z" />
    <glyph glyph-name="Ecircumflex" unicode="&#xca;" horiz-adv-x="574" 
d="M157 714h479l-13 -58h-410l-55 -258h383l-13 -58h-382l-60 -282h420l-13 -58h-488zM298 763h-61l136 144h63l86 -144h-57l-66 106z" />
    <glyph glyph-name="Edieresis" unicode="&#xcb;" horiz-adv-x="574" 
d="M157 714h479l-13 -58h-410l-55 -258h383l-13 -58h-382l-60 -282h420l-13 -58h-488zM455 881h64l-20 -102h-63zM296 881h64l-20 -102h-63z" />
    <glyph glyph-name="Igrave" unicode="&#xcc;" horiz-adv-x="222" 
d="M156 714h68l-151 -714h-68zM178 907l82 -144h-50l-106 144h74z" />
    <glyph glyph-name="Iacute" unicode="&#xcd;" horiz-adv-x="222" 
d="M156 714h68l-151 -714h-68zM237 907h81l-144 -144h-53z" />
    <glyph glyph-name="Icircumflex" unicode="&#xce;" horiz-adv-x="222" 
d="M156 714h68l-151 -714h-68zM95 763h-61l136 144h63l86 -144h-57l-66 106z" />
    <glyph glyph-name="Idieresis" unicode="&#xcf;" horiz-adv-x="222" 
d="M156 714h68l-151 -714h-68zM252 881h64l-20 -102h-63zM93 881h64l-20 -102h-63z" />
    <glyph glyph-name="Ntilde" unicode="&#xd1;" horiz-adv-x="704" 
d="M154 714h77l285 -638l134 638h66l-156 -714h-75l-285 638l-135 -638h-65zM610 879c-3.33301 -14 -6.99609 -26.1689 -10.9961 -36.502s-10 -20.666 -18 -30.999s-16.833 -18.5 -26.5 -24.5s-20.834 -9 -33.501 -9s-23.5 1.83301 -32.5 5.5s-21.333 9.83398 -37 18.501
l-41 22.5c-11.667 6.33301 -21.5 9.5 -29.5 9.5c-11.333 0 -21.5 -6 -30.5 -18s-14.833 -24.667 -17.5 -38h-41c8 29.333 19.167 53.5 33.5 72.5s34.166 28.5 59.499 28.5c11.333 0 22.166 -2.16699 32.499 -6.5s23.666 -11.5 39.999 -21.5s29 -17.167 38 -21.5
s18.833 -6.5 29.5 -6.5c9.33301 0 18.333 6.33301 27 19s14.667 25 18 37h40z" />
    <glyph glyph-name="Ograve" unicode="&#xd2;" horiz-adv-x="741" 
d="M421 671c-101.333 0 -179.834 -38.333 -235.501 -115s-83.5 -167.667 -83.5 -273c0 -74 20.833 -132.5 62.5 -175.5s99.5 -64.5 173.5 -64.5c92.667 0 167.834 37.667 225.501 113s86.5 161 86.5 257c0 78 -19.167 140.5 -57.5 187.5s-95.5 70.5 -171.5 70.5zM33.999 289
c0 120 35.333 223.333 106 310s164.667 130 282 130c90 0 161.833 -27.167 215.5 -81.5s80.5 -126.833 80.5 -217.5c0 -123.333 -35 -228.333 -105 -315s-165.333 -130 -286 -130c-91.333 0 -163 27.667 -215 83s-78 129 -78 221zM418.999 907l82 -144h-50l-106 144h74z" />
    <glyph glyph-name="Oacute" unicode="&#xd3;" horiz-adv-x="741" 
d="M421 671c-101.333 0 -179.834 -38.333 -235.501 -115s-83.5 -167.667 -83.5 -273c0 -74 20.833 -132.5 62.5 -175.5s99.5 -64.5 173.5 -64.5c92.667 0 167.834 37.667 225.501 113s86.5 161 86.5 257c0 78 -19.167 140.5 -57.5 187.5s-95.5 70.5 -171.5 70.5zM33.999 289
c0 120 35.333 223.333 106 310s164.667 130 282 130c90 0 161.833 -27.167 215.5 -81.5s80.5 -126.833 80.5 -217.5c0 -123.333 -35 -228.333 -105 -315s-165.333 -130 -286 -130c-91.333 0 -163 27.667 -215 83s-78 129 -78 221zM477.999 907h81l-144 -144h-53z" />
    <glyph glyph-name="Ocircumflex" unicode="&#xd4;" horiz-adv-x="741" 
d="M421 671c-101.333 0 -179.834 -38.333 -235.501 -115s-83.5 -167.667 -83.5 -273c0 -74 20.833 -132.5 62.5 -175.5s99.5 -64.5 173.5 -64.5c92.667 0 167.834 37.667 225.501 113s86.5 161 86.5 257c0 78 -19.167 140.5 -57.5 187.5s-95.5 70.5 -171.5 70.5zM33.999 289
c0 120 35.333 223.333 106 310s164.667 130 282 130c90 0 161.833 -27.167 215.5 -81.5s80.5 -126.833 80.5 -217.5c0 -123.333 -35 -228.333 -105 -315s-165.333 -130 -286 -130c-91.333 0 -163 27.667 -215 83s-78 129 -78 221zM335.999 763h-61l136 144h63l86 -144h-57
l-66 106z" />
    <glyph glyph-name="Otilde" unicode="&#xd5;" horiz-adv-x="741" 
d="M421 671c-101.333 0 -179.834 -38.333 -235.501 -115s-83.5 -167.667 -83.5 -273c0 -74 20.833 -132.5 62.5 -175.5s99.5 -64.5 173.5 -64.5c92.667 0 167.834 37.667 225.501 113s86.5 161 86.5 257c0 78 -19.167 140.5 -57.5 187.5s-95.5 70.5 -171.5 70.5zM33.999 289
c0 120 35.333 223.333 106 310s164.667 130 282 130c90 0 161.833 -27.167 215.5 -81.5s80.5 -126.833 80.5 -217.5c0 -123.333 -35 -228.333 -105 -315s-165.333 -130 -286 -130c-91.333 0 -163 27.667 -215 83s-78 129 -78 221zM591.999 879
c-3.33301 -14 -6.99609 -26.1689 -10.9961 -36.502s-10 -20.666 -18 -30.999s-16.833 -18.5 -26.5 -24.5s-20.834 -9 -33.501 -9s-23.5 1.83301 -32.5 5.5s-21.333 9.83398 -37 18.501l-41 22.5c-11.667 6.33301 -21.5 9.5 -29.5 9.5c-11.333 0 -21.5 -6 -30.5 -18
s-14.833 -24.667 -17.5 -38h-41c8 29.333 19.167 53.5 33.5 72.5s34.166 28.5 59.499 28.5c11.333 0 22.166 -2.16699 32.499 -6.5s23.666 -11.5 39.999 -21.5s29 -17.167 38 -21.5s18.833 -6.5 29.5 -6.5c9.33301 0 18.333 6.33301 27 19s14.667 25 18 37h40z" />
    <glyph glyph-name="Odieresis" unicode="&#xd6;" horiz-adv-x="741" 
d="M421 671c-101.333 0 -179.834 -38.333 -235.501 -115s-83.5 -167.667 -83.5 -273c0 -74 20.833 -132.5 62.5 -175.5s99.5 -64.5 173.5 -64.5c92.667 0 167.834 37.667 225.501 113s86.5 161 86.5 257c0 78 -19.167 140.5 -57.5 187.5s-95.5 70.5 -171.5 70.5zM33.999 289
c0 120 35.333 223.333 106 310s164.667 130 282 130c90 0 161.833 -27.167 215.5 -81.5s80.5 -126.833 80.5 -217.5c0 -123.333 -35 -228.333 -105 -315s-165.333 -130 -286 -130c-91.333 0 -163 27.667 -215 83s-78 129 -78 221zM492.999 881h64l-20 -102h-63zM333.999 881
h64l-20 -102h-63z" />
    <glyph glyph-name="Oslash" unicode="&#xd8;" horiz-adv-x="741" 
d="M586 606c-18.667 20 -42.167 35.833 -70.5 47.5s-59.833 17.5 -94.5 17.5c-101.333 0 -179.833 -38.333 -235.5 -115s-83.5 -167.667 -83.5 -273c0 -58 12.667 -105.667 38 -143zM740 712l-83 -86c40.667 -52 61 -117.333 61 -196c0 -123.333 -35 -228.333 -105 -315
s-165.333 -130 -286 -130c-44.667 0 -84.334 6.66699 -119.001 20s-65 33 -91 59l-88 -91l-24 27l88 91c-39.333 51.333 -59 117.333 -59 198c0 120 35.333 223.333 106 310s164.667 130 282 130c43.333 0 82.333 -6.33301 117 -19s65.334 -31.667 92.001 -57l84 88z
M163 112c20.667 -22 45.499 -39 74.499 -51s62.5 -18 100.5 -18c92.667 0 167.834 37.667 225.501 113s86.5 161 86.5 257c0 66 -13.667 120.333 -41 163z" />
    <glyph glyph-name="Ugrave" unicode="&#xd9;" horiz-adv-x="704" 
d="M150 714l67.999 0.000976562l-95 -454c-4.66699 -19.333 -7 -40 -7 -62c0 -50.667 17.333 -89.167 52 -115.5s82.334 -39.5 143.001 -39.5c63.333 0 114.5 16.167 153.5 48.5s64.833 78.833 77.5 139.5l101 483h68l-102 -488c-17.333 -82 -52 -142.667 -104 -182
s-119.667 -59 -203 -59c-70.667 0 -130.667 16.667 -180 50s-74 85 -74 155c0 15.333 2 34.666 6 57.999zM400.999 907.001l82 -144h-50l-106 144h74z" />
    <glyph glyph-name="Uacute" unicode="&#xda;" horiz-adv-x="704" 
d="M150 714l67.999 0.000976562l-95 -454c-4.66699 -19.333 -7 -40 -7 -62c0 -50.667 17.333 -89.167 52 -115.5s82.334 -39.5 143.001 -39.5c63.333 0 114.5 16.167 153.5 48.5s64.833 78.833 77.5 139.5l101 483h68l-102 -488c-17.333 -82 -52 -142.667 -104 -182
s-119.667 -59 -203 -59c-70.667 0 -130.667 16.667 -180 50s-74 85 -74 155c0 15.333 2 34.666 6 57.999zM495.999 907.001h81l-144 -144h-53z" />
    <glyph glyph-name="Ucircumflex" unicode="&#xdb;" horiz-adv-x="704" 
d="M150 714l67.999 0.000976562l-95 -454c-4.66699 -19.333 -7 -40 -7 -62c0 -50.667 17.333 -89.167 52 -115.5s82.334 -39.5 143.001 -39.5c63.333 0 114.5 16.167 153.5 48.5s64.833 78.833 77.5 139.5l101 483h68l-102 -488c-17.333 -82 -52 -142.667 -104 -182
s-119.667 -59 -203 -59c-70.667 0 -130.667 16.667 -180 50s-74 85 -74 155c0 15.333 2 34.666 6 57.999zM353.999 763.001h-61l136 144h63l86 -144h-57l-66 106z" />
    <glyph glyph-name="Udieresis" unicode="&#xdc;" horiz-adv-x="704" 
d="M150 714l67.999 0.000976562l-95 -454c-4.66699 -19.333 -7 -40 -7 -62c0 -50.667 17.333 -89.167 52 -115.5s82.334 -39.5 143.001 -39.5c63.333 0 114.5 16.167 153.5 48.5s64.833 78.833 77.5 139.5l101 483h68l-102 -488c-17.333 -82 -52 -142.667 -104 -182
s-119.667 -59 -203 -59c-70.667 0 -130.667 16.667 -180 50s-74 85 -74 155c0 15.333 2 34.666 6 57.999zM510.999 881.001h64l-20 -102h-63zM351.999 881.001h64l-20 -102h-63z" />
    <glyph glyph-name="germandbls" unicode="&#xdf;" horiz-adv-x="519" 
d="M107 545c12.667 60.667 36.165 106.502 70.498 137.502s81.166 46.5 140.499 46.5c52.667 0 95.167 -12.667 127.5 -38s48.5 -64.333 48.5 -117c0 -44.667 -14.5 -83.5 -43.5 -116.5s-65.5 -52.5 -109.5 -58.5c37.333 -9.33301 66.333 -26.833 87 -52.5
s31 -57.834 31 -96.501c0 -70.667 -23.833 -131 -71.5 -181s-106.834 -75 -177.501 -75h-18c-18 0 -34 1.33301 -48 4l11 52c4.66699 -0.666992 11.334 -1.33398 20.001 -2.00098s17 -1 25 -1c54 0 100.167 18.5 138.5 55.5s57.5 82.5 57.5 136.5
c0 49.333 -15.167 83.166 -45.5 101.499s-72.166 27.5 -125.499 27.5l12 53c50.667 0 95.667 12.167 135 36.5s59 61.5 59 111.5c0 33.333 -10.167 59.5 -30.5 78.5s-47.166 28.5 -80.499 28.5c-46 0 -80.167 -12.167 -102.5 -36.5s-39.166 -61.166 -50.499 -110.499
l-115 -529h-63z" />
    <glyph glyph-name="agrave" unicode="&#xe0;" horiz-adv-x="519" 
d="M374 276l-1.99902 2.00098c-8.66699 -11.333 -23.834 -19 -45.501 -23s-44.5 -6 -68.5 -6c-56 0 -104 -7.66699 -144 -23s-60 -47 -60 -95c0 -30.667 11 -53.834 33 -69.501s49.333 -23.5 82 -23.5c50 0 90.667 13.333 122 40s52.333 63.667 63 111zM62.001 362.001
c8 56 31.6689 98.166 71.002 126.499s88.333 42.5 147 42.5c44.667 0 85.667 -9 123 -27s56 -47.333 56 -88c0 -25.333 -4.16699 -55.5 -12.5 -90.5s-15 -64.5 -20 -88.5s-11.833 -54.833 -20.5 -92.5s-13 -63.167 -13 -76.5c0 -8 3.16699 -13.5 9.5 -16.5
s14.166 -4.5 23.499 -4.5l25 2l-9 -50c-15.333 -3.33301 -32.666 -5 -51.999 -5c-17.333 0 -30.833 4.83301 -40.5 14.5s-14.5 23.5 -14.5 41.5l2 28l-2 2c-17.333 -29.333 -42.333 -52.5 -75 -69.5s-67.334 -25.5 -104.001 -25.5c-50.667 0 -90.834 11.667 -120.501 35
s-44.5 59.333 -44.5 108c0 50 16.167 86.833 48.5 110.5s65 38.334 98 44.001s70.5 9.66699 112.5 12s71.833 5.66602 89.5 9.99902s31.5 13.833 41.5 28.5s15 38.334 15 71.001c0 28 -10.5 47.333 -31.5 58s-46.833 16 -77.5 16c-44 0 -80.5 -9 -109.5 -27
s-46.5 -47.667 -52.5 -89h-63zM278.003 729l82 -144h-50l-106 144h74z" />
    <glyph glyph-name="aacute" unicode="&#xe1;" horiz-adv-x="519" 
d="M374 276l-1.99902 2.00098c-8.66699 -11.333 -23.834 -19 -45.501 -23s-44.5 -6 -68.5 -6c-56 0 -104 -7.66699 -144 -23s-60 -47 -60 -95c0 -30.667 11 -53.834 33 -69.501s49.333 -23.5 82 -23.5c50 0 90.667 13.333 122 40s52.333 63.667 63 111zM62.001 362.001
c8 56 31.6689 98.166 71.002 126.499s88.333 42.5 147 42.5c44.667 0 85.667 -9 123 -27s56 -47.333 56 -88c0 -25.333 -4.16699 -55.5 -12.5 -90.5s-15 -64.5 -20 -88.5s-11.833 -54.833 -20.5 -92.5s-13 -63.167 -13 -76.5c0 -8 3.16699 -13.5 9.5 -16.5
s14.166 -4.5 23.499 -4.5l25 2l-9 -50c-15.333 -3.33301 -32.666 -5 -51.999 -5c-17.333 0 -30.833 4.83301 -40.5 14.5s-14.5 23.5 -14.5 41.5l2 28l-2 2c-17.333 -29.333 -42.333 -52.5 -75 -69.5s-67.334 -25.5 -104.001 -25.5c-50.667 0 -90.834 11.667 -120.501 35
s-44.5 59.333 -44.5 108c0 50 16.167 86.833 48.5 110.5s65 38.334 98 44.001s70.5 9.66699 112.5 12s71.833 5.66602 89.5 9.99902s31.5 13.833 41.5 28.5s15 38.334 15 71.001c0 28 -10.5 47.333 -31.5 58s-46.833 16 -77.5 16c-44 0 -80.5 -9 -109.5 -27
s-46.5 -47.667 -52.5 -89h-63zM367.003 729h81l-144 -144h-53z" />
    <glyph glyph-name="acircumflex" unicode="&#xe2;" horiz-adv-x="519" 
d="M374 276l-1.99902 2.00098c-8.66699 -11.333 -23.834 -19 -45.501 -23s-44.5 -6 -68.5 -6c-56 0 -104 -7.66699 -144 -23s-60 -47 -60 -95c0 -30.667 11 -53.834 33 -69.501s49.333 -23.5 82 -23.5c50 0 90.667 13.333 122 40s52.333 63.667 63 111zM62.001 362.001
c8 56 31.6689 98.166 71.002 126.499s88.333 42.5 147 42.5c44.667 0 85.667 -9 123 -27s56 -47.333 56 -88c0 -25.333 -4.16699 -55.5 -12.5 -90.5s-15 -64.5 -20 -88.5s-11.833 -54.833 -20.5 -92.5s-13 -63.167 -13 -76.5c0 -8 3.16699 -13.5 9.5 -16.5
s14.166 -4.5 23.499 -4.5l25 2l-9 -50c-15.333 -3.33301 -32.666 -5 -51.999 -5c-17.333 0 -30.833 4.83301 -40.5 14.5s-14.5 23.5 -14.5 41.5l2 28l-2 2c-17.333 -29.333 -42.333 -52.5 -75 -69.5s-67.334 -25.5 -104.001 -25.5c-50.667 0 -90.834 11.667 -120.501 35
s-44.5 59.333 -44.5 108c0 50 16.167 86.833 48.5 110.5s65 38.334 98 44.001s70.5 9.66699 112.5 12s71.833 5.66602 89.5 9.99902s31.5 13.833 41.5 28.5s15 38.334 15 71.001c0 28 -10.5 47.333 -31.5 58s-46.833 16 -77.5 16c-44 0 -80.5 -9 -109.5 -27
s-46.5 -47.667 -52.5 -89h-63zM225.003 585h-61l136 144h63l86 -144h-57l-66 106z" />
    <glyph glyph-name="atilde" unicode="&#xe3;" horiz-adv-x="519" 
d="M374 276l-1.99902 2.00098c-8.66699 -11.333 -23.834 -19 -45.501 -23s-44.5 -6 -68.5 -6c-56 0 -104 -7.66699 -144 -23s-60 -47 -60 -95c0 -30.667 11 -53.834 33 -69.501s49.333 -23.5 82 -23.5c50 0 90.667 13.333 122 40s52.333 63.667 63 111zM62.001 362.001
c8 56 31.6689 98.166 71.002 126.499s88.333 42.5 147 42.5c44.667 0 85.667 -9 123 -27s56 -47.333 56 -88c0 -25.333 -4.16699 -55.5 -12.5 -90.5s-15 -64.5 -20 -88.5s-11.833 -54.833 -20.5 -92.5s-13 -63.167 -13 -76.5c0 -8 3.16699 -13.5 9.5 -16.5
s14.166 -4.5 23.499 -4.5l25 2l-9 -50c-15.333 -3.33301 -32.666 -5 -51.999 -5c-17.333 0 -30.833 4.83301 -40.5 14.5s-14.5 23.5 -14.5 41.5l2 28l-2 2c-17.333 -29.333 -42.333 -52.5 -75 -69.5s-67.334 -25.5 -104.001 -25.5c-50.667 0 -90.834 11.667 -120.501 35
s-44.5 59.333 -44.5 108c0 50 16.167 86.833 48.5 110.5s65 38.334 98 44.001s70.5 9.66699 112.5 12s71.833 5.66602 89.5 9.99902s31.5 13.833 41.5 28.5s15 38.334 15 71.001c0 28 -10.5 47.333 -31.5 58s-46.833 16 -77.5 16c-44 0 -80.5 -9 -109.5 -27
s-46.5 -47.667 -52.5 -89h-63zM481.003 701c-3.33301 -14 -6.99609 -26.1689 -10.9961 -36.502s-10 -20.666 -18 -30.999s-16.833 -18.5 -26.5 -24.5s-20.834 -9 -33.501 -9s-23.5 1.83301 -32.5 5.5s-21.333 9.83398 -37 18.501l-41 22.5
c-11.667 6.33301 -21.5 9.5 -29.5 9.5c-11.333 0 -21.5 -6 -30.5 -18s-14.833 -24.667 -17.5 -38h-41c8 29.333 19.167 53.5 33.5 72.5s34.166 28.5 59.499 28.5c11.333 0 22.166 -2.16699 32.499 -6.5s23.666 -11.5 39.999 -21.5s29 -17.167 38 -21.5
s18.833 -6.5 29.5 -6.5c9.33301 0 18.333 6.33301 27 19s14.667 25 18 37h40z" />
    <glyph glyph-name="adieresis" unicode="&#xe4;" horiz-adv-x="519" 
d="M374 276l-1.99902 2.00098c-8.66699 -11.333 -23.834 -19 -45.501 -23s-44.5 -6 -68.5 -6c-56 0 -104 -7.66699 -144 -23s-60 -47 -60 -95c0 -30.667 11 -53.834 33 -69.501s49.333 -23.5 82 -23.5c50 0 90.667 13.333 122 40s52.333 63.667 63 111zM62.001 362.001
c8 56 31.6689 98.166 71.002 126.499s88.333 42.5 147 42.5c44.667 0 85.667 -9 123 -27s56 -47.333 56 -88c0 -25.333 -4.16699 -55.5 -12.5 -90.5s-15 -64.5 -20 -88.5s-11.833 -54.833 -20.5 -92.5s-13 -63.167 -13 -76.5c0 -8 3.16699 -13.5 9.5 -16.5
s14.166 -4.5 23.499 -4.5l25 2l-9 -50c-15.333 -3.33301 -32.666 -5 -51.999 -5c-17.333 0 -30.833 4.83301 -40.5 14.5s-14.5 23.5 -14.5 41.5l2 28l-2 2c-17.333 -29.333 -42.333 -52.5 -75 -69.5s-67.334 -25.5 -104.001 -25.5c-50.667 0 -90.834 11.667 -120.501 35
s-44.5 59.333 -44.5 108c0 50 16.167 86.833 48.5 110.5s65 38.334 98 44.001s70.5 9.66699 112.5 12s71.833 5.66602 89.5 9.99902s31.5 13.833 41.5 28.5s15 38.334 15 71.001c0 28 -10.5 47.333 -31.5 58s-46.833 16 -77.5 16c-44 0 -80.5 -9 -109.5 -27
s-46.5 -47.667 -52.5 -89h-63zM382.003 703h64l-20 -102h-63zM223.003 703h64l-20 -102h-63z" />
    <glyph glyph-name="aring" unicode="&#xe5;" horiz-adv-x="519" 
d="M374 276l-1.99902 2.00098c-8.66699 -11.333 -23.834 -19 -45.501 -23s-44.5 -6 -68.5 -6c-56 0 -104 -7.66699 -144 -23s-60 -47 -60 -95c0 -30.667 11 -53.834 33 -69.501s49.333 -23.5 82 -23.5c50 0 90.667 13.333 122 40s52.333 63.667 63 111zM62.001 362.001
c8 56 31.6689 98.166 71.002 126.499s88.333 42.5 147 42.5c44.667 0 85.667 -9 123 -27s56 -47.333 56 -88c0 -25.333 -4.16699 -55.5 -12.5 -90.5s-15 -64.5 -20 -88.5s-11.833 -54.833 -20.5 -92.5s-13 -63.167 -13 -76.5c0 -8 3.16699 -13.5 9.5 -16.5
s14.166 -4.5 23.499 -4.5l25 2l-9 -50c-15.333 -3.33301 -32.666 -5 -51.999 -5c-17.333 0 -30.833 4.83301 -40.5 14.5s-14.5 23.5 -14.5 41.5l2 28l-2 2c-17.333 -29.333 -42.333 -52.5 -75 -69.5s-67.334 -25.5 -104.001 -25.5c-50.667 0 -90.834 11.667 -120.501 35
s-44.5 59.333 -44.5 108c0 50 16.167 86.833 48.5 110.5s65 38.334 98 44.001s70.5 9.66699 112.5 12s71.833 5.66602 89.5 9.99902s31.5 13.833 41.5 28.5s15 38.334 15 71.001c0 28 -10.5 47.333 -31.5 58s-46.833 16 -77.5 16c-44 0 -80.5 -9 -109.5 -27
s-46.5 -47.667 -52.5 -89h-63zM392.003 674c0 16.667 -6.66699 31.668 -20 45.001s-28.666 20 -45.999 20s-32.5 -6.5 -45.5 -19.5s-19.5 -28.167 -19.5 -45.5c0 -18 6.5 -33.5 19.5 -46.5s28.167 -19.5 45.5 -19.5s32.666 6.66699 45.999 20s20 28.666 20 45.999z
M227.003 674.001c0 26.667 9.83105 49.832 29.498 69.499s42.834 29.5 69.501 29.5s50 -9.66699 70 -29s30 -42.666 30 -69.999c0 -28 -9.66699 -51.667 -29 -71s-43 -29 -71 -29c-27.333 0 -50.666 9.66699 -69.999 29s-29 43 -29 71z" />
    <glyph glyph-name="ae" unicode="&#xe6;" horiz-adv-x="852" 
d="M756 294c1.33301 8 1.99707 16.167 1.99707 24.5v19.5c0 41.333 -11.667 75 -35 101s-55.666 39 -96.999 39c-51.333 0 -93.166 -16.833 -125.499 -50.5s-54.166 -78.167 -65.499 -133.5h321zM61.9971 362c8 56 31.666 98.168 70.999 126.501s88.333 42.5 147 42.5
c39.333 0 75 -7.83301 107 -23.5s52 -42.834 60 -81.501c20 34.667 45.833 60.834 77.5 78.501s67.5 26.5 107.5 26.5c60.667 0 107.334 -19 140.001 -57s49 -89 49 -153c0 -23.333 -3.33301 -50 -10 -80h-385c-2 -10.667 -3.83301 -21.334 -5.5 -32.001
s-2.5 -22.334 -2.5 -35.001c0 -41.333 13 -74.333 39 -99s59.667 -37 101 -37c42 0 78.333 11.333 109 34s51.334 54 62.001 94h63c-20 -61.333 -49.833 -106.833 -89.5 -136.5s-92.167 -44.5 -157.5 -44.5c-48 0 -87.667 11.333 -119 34s-49.666 57 -54.999 103
c-17.333 -46 -44.333 -80.333 -81 -103s-81.334 -34 -134.001 -34c-50.667 0 -90.834 11.667 -120.501 35s-44.5 59.333 -44.5 108c0 50 16.167 86.833 48.5 110.5s65 38.334 98 44.001s70.5 9.66699 112.5 12s71.833 5.66602 89.5 9.99902s31.5 13.833 41.5 28.5
s15 38.334 15 71.001c0 28 -10.5 47.333 -31.5 58s-46.833 16 -77.5 16c-44 0 -80.5 -9 -109.5 -27s-46.5 -47.667 -52.5 -89h-63zM373.996 276.001l-1.99902 2.00098c-8.66699 -11.333 -23.834 -19 -45.501 -23s-44.5 -6 -68.5 -6c-56 0 -104 -7.66699 -144 -23
s-60 -47 -60 -95c0 -30.667 11 -53.834 33 -69.501s49.333 -23.5 82 -23.5c50 0 90.667 13.333 122 40s52.333 63.667 63 111z" />
    <glyph glyph-name="ccedilla" unicode="&#xe7;" horiz-adv-x="519" 
d="M454 167c-19.333 -60 -48.832 -105.333 -88.499 -136s-90.5 -46 -152.5 -46l-41 -41l2 -2c8 2 13.5 3.16699 16.5 3.5s9.5 0.5 19.5 0.5c22 0 39.833 -5.66699 53.5 -17s20.5 -28.666 20.5 -51.999c0 -25.333 -11 -45.166 -33 -59.499s-46.667 -21.5 -74 -21.5
c-32.667 0 -64.667 7.33301 -96 22l14 29c16 -6.66699 29.167 -11.167 39.5 -13.5s23.166 -3.5 38.499 -3.5c16 0 29.333 3 40 9s16 16.667 16 32c0 13.333 -5.16699 23.5 -15.5 30.5s-23.166 10.5 -38.499 10.5c-14 0 -27 -3 -39 -9l-16 18l58 67
c-52.667 6.66699 -93.167 28.667 -121.5 66s-42.5 85.333 -42.5 144c0 87.333 25.5 164.666 76.5 231.999s118.833 101 203.5 101c58 0 104.667 -14.833 140 -44.5s53 -73.5 53 -131.5h-63c0 38 -11.333 68 -34 90s-52.667 33 -90 33c-70.667 0 -125.5 -28 -164.5 -84
s-58.5 -121.333 -58.5 -196c0 -48 12.167 -86.667 36.5 -116s60.166 -44 107.499 -44c40.667 0 75.667 11.667 105 35s51 54.666 65 93.999h63z" />
    <glyph glyph-name="egrave" unicode="&#xe8;" horiz-adv-x="519" 
d="M80 241l-3.00098 -39.998c0 -48.667 12.667 -88 38 -118s62.666 -45 111.999 -45c40 0 75.167 11.833 105.5 35.5s51.5 54.5 63.5 92.5h63c-17.333 -58.667 -45.5 -103.5 -84.5 -134.5s-89.167 -46.5 -150.5 -46.5c-67.333 0 -119.166 19.5 -155.499 58.5
s-54.5 92.5 -54.5 160.5c0 87.333 25.333 163.666 76 228.999s118.334 98 203.001 98c61.333 0 109.333 -18.333 144 -55s52 -85.334 52 -146.001c0 -14 -0.333008 -28.5 -1 -43.5s-2 -30.167 -4 -45.5h-404zM424.999 294.002l0.999023 39.999
c0 42.667 -12.667 77.334 -38 104.001s-59.666 40 -102.999 40c-49.333 0 -91.5 -17.833 -126.5 -53.5s-58.5 -79.167 -70.5 -130.5h337zM277.998 729.001l82 -144h-50l-106 144h74z" />
    <glyph glyph-name="eacute" unicode="&#xe9;" horiz-adv-x="519" 
d="M80 241l-3.00098 -39.998c0 -48.667 12.667 -88 38 -118s62.666 -45 111.999 -45c40 0 75.167 11.833 105.5 35.5s51.5 54.5 63.5 92.5h63c-17.333 -58.667 -45.5 -103.5 -84.5 -134.5s-89.167 -46.5 -150.5 -46.5c-67.333 0 -119.166 19.5 -155.499 58.5
s-54.5 92.5 -54.5 160.5c0 87.333 25.333 163.666 76 228.999s118.334 98 203.001 98c61.333 0 109.333 -18.333 144 -55s52 -85.334 52 -146.001c0 -14 -0.333008 -28.5 -1 -43.5s-2 -30.167 -4 -45.5h-404zM424.999 294.002l0.999023 39.999
c0 42.667 -12.667 77.334 -38 104.001s-59.666 40 -102.999 40c-49.333 0 -91.5 -17.833 -126.5 -53.5s-58.5 -79.167 -70.5 -130.5h337zM366.998 729.001h81l-144 -144h-53z" />
    <glyph glyph-name="ecircumflex" unicode="&#xea;" horiz-adv-x="519" 
d="M80 241l-3.00098 -39.998c0 -48.667 12.667 -88 38 -118s62.666 -45 111.999 -45c40 0 75.167 11.833 105.5 35.5s51.5 54.5 63.5 92.5h63c-17.333 -58.667 -45.5 -103.5 -84.5 -134.5s-89.167 -46.5 -150.5 -46.5c-67.333 0 -119.166 19.5 -155.499 58.5
s-54.5 92.5 -54.5 160.5c0 87.333 25.333 163.666 76 228.999s118.334 98 203.001 98c61.333 0 109.333 -18.333 144 -55s52 -85.334 52 -146.001c0 -14 -0.333008 -28.5 -1 -43.5s-2 -30.167 -4 -45.5h-404zM424.999 294.002l0.999023 39.999
c0 42.667 -12.667 77.334 -38 104.001s-59.666 40 -102.999 40c-49.333 0 -91.5 -17.833 -126.5 -53.5s-58.5 -79.167 -70.5 -130.5h337zM224.998 585.001h-61l136 144h63l86 -144h-57l-66 106z" />
    <glyph glyph-name="edieresis" unicode="&#xeb;" horiz-adv-x="519" 
d="M80 241l-3.00098 -39.998c0 -48.667 12.667 -88 38 -118s62.666 -45 111.999 -45c40 0 75.167 11.833 105.5 35.5s51.5 54.5 63.5 92.5h63c-17.333 -58.667 -45.5 -103.5 -84.5 -134.5s-89.167 -46.5 -150.5 -46.5c-67.333 0 -119.166 19.5 -155.499 58.5
s-54.5 92.5 -54.5 160.5c0 87.333 25.333 163.666 76 228.999s118.334 98 203.001 98c61.333 0 109.333 -18.333 144 -55s52 -85.334 52 -146.001c0 -14 -0.333008 -28.5 -1 -43.5s-2 -30.167 -4 -45.5h-404zM424.999 294.002l0.999023 39.999
c0 42.667 -12.667 77.334 -38 104.001s-59.666 40 -102.999 40c-49.333 0 -91.5 -17.833 -126.5 -53.5s-58.5 -79.167 -70.5 -130.5h337zM381.998 703.001h64l-20 -102h-63zM222.998 703.001h64l-20 -102h-63z" />
    <glyph glyph-name="igrave" unicode="&#xec;" horiz-adv-x="185" 
d="M-11 0l111 516h63l-111 -516h-63zM141 729l82 -144h-50l-106 144h74z" />
    <glyph glyph-name="iacute" unicode="&#xed;" horiz-adv-x="185" 
d="M-11 0l111 516h63l-111 -516h-63zM200 729h81l-144 -144h-53z" />
    <glyph glyph-name="icircumflex" unicode="&#xee;" horiz-adv-x="185" 
d="M-11 0l111 516h63l-111 -516h-63zM58 585h-61l136 144h63l86 -144h-57l-66 106z" />
    <glyph glyph-name="idieresis" unicode="&#xef;" horiz-adv-x="185" 
d="M-11 0l111 516h63l-111 -516h-63zM215 703h64l-20 -102h-63zM56 703h64l-20 -102h-63z" />
    <glyph glyph-name="ntilde" unicode="&#xf1;" horiz-adv-x="537" 
d="M100 516l57.999 -0.00195312l-18 -94c21.333 32 48.5 58.167 81.5 78.5s67.833 30.5 104.5 30.5c48 0 86 -11.167 114 -33.5s42 -57.5 42 -105.5c0 -15.333 -2.66699 -35.666 -8 -60.999l-71 -331h-63l72 333c4.66699 18.667 7 36 7 52c0 32 -10.167 55.5 -30.5 70.5
s-46.166 22.5 -77.499 22.5c-46.667 0 -88.5 -19.167 -125.5 -57.5s-62.5 -90.166 -76.5 -155.499l-57 -265h-63zM489.999 700.998c-3.33301 -14 -6.99609 -26.1689 -10.9961 -36.502s-10 -20.666 -18 -30.999s-16.833 -18.5 -26.5 -24.5s-20.834 -9 -33.501 -9
s-23.5 1.83301 -32.5 5.5s-21.333 9.83398 -37 18.501l-41 22.5c-11.667 6.33301 -21.5 9.5 -29.5 9.5c-11.333 0 -21.5 -6 -30.5 -18s-14.833 -24.667 -17.5 -38h-41c8 29.333 19.167 53.5 33.5 72.5s34.166 28.5 59.499 28.5c11.333 0 22.166 -2.16699 32.499 -6.5
s23.666 -11.5 39.999 -21.5s29 -17.167 38 -21.5s18.833 -6.5 29.5 -6.5c9.33301 0 18.333 6.33301 27 19s14.667 25 18 37h40z" />
    <glyph glyph-name="ograve" unicode="&#xf2;" 
d="M506 329c0 -94 -24.999 -174.833 -74.999 -242.5s-120.333 -101.5 -211 -101.5c-65.333 0 -116 19.333 -152 58s-54 91 -54 157c0 90 26 167.667 78 233s122 98 210 98c61.333 0 110.666 -18 147.999 -54s56 -85.333 56 -148zM443.001 316
c0 49.333 -13 88.666 -39 117.999s-63.667 44 -113 44c-64.667 0 -116.5 -28.333 -155.5 -85s-58.5 -119 -58.5 -187c0 -51.333 13.167 -92.166 39.5 -122.499s64.833 -45.5 115.5 -45.5c64 0 115.167 29.5 153.5 88.5s57.5 122.167 57.5 189.5zM297.001 729l82 -144h-50
l-106 144h74z" />
    <glyph glyph-name="oacute" unicode="&#xf3;" 
d="M506 329c0 -94 -24.999 -174.833 -74.999 -242.5s-120.333 -101.5 -211 -101.5c-65.333 0 -116 19.333 -152 58s-54 91 -54 157c0 90 26 167.667 78 233s122 98 210 98c61.333 0 110.666 -18 147.999 -54s56 -85.333 56 -148zM443.001 316
c0 49.333 -13 88.666 -39 117.999s-63.667 44 -113 44c-64.667 0 -116.5 -28.333 -155.5 -85s-58.5 -119 -58.5 -187c0 -51.333 13.167 -92.166 39.5 -122.499s64.833 -45.5 115.5 -45.5c64 0 115.167 29.5 153.5 88.5s57.5 122.167 57.5 189.5zM386.001 729h81l-144 -144
h-53z" />
    <glyph glyph-name="ocircumflex" unicode="&#xf4;" 
d="M506 329c0 -94 -24.999 -174.833 -74.999 -242.5s-120.333 -101.5 -211 -101.5c-65.333 0 -116 19.333 -152 58s-54 91 -54 157c0 90 26 167.667 78 233s122 98 210 98c61.333 0 110.666 -18 147.999 -54s56 -85.333 56 -148zM443.001 316
c0 49.333 -13 88.666 -39 117.999s-63.667 44 -113 44c-64.667 0 -116.5 -28.333 -155.5 -85s-58.5 -119 -58.5 -187c0 -51.333 13.167 -92.166 39.5 -122.499s64.833 -45.5 115.5 -45.5c64 0 115.167 29.5 153.5 88.5s57.5 122.167 57.5 189.5zM244.001 585h-61l136 144h63
l86 -144h-57l-66 106z" />
    <glyph glyph-name="otilde" unicode="&#xf5;" 
d="M506 329c0 -94 -24.999 -174.833 -74.999 -242.5s-120.333 -101.5 -211 -101.5c-65.333 0 -116 19.333 -152 58s-54 91 -54 157c0 90 26 167.667 78 233s122 98 210 98c61.333 0 110.666 -18 147.999 -54s56 -85.333 56 -148zM443.001 316
c0 49.333 -13 88.666 -39 117.999s-63.667 44 -113 44c-64.667 0 -116.5 -28.333 -155.5 -85s-58.5 -119 -58.5 -187c0 -51.333 13.167 -92.166 39.5 -122.499s64.833 -45.5 115.5 -45.5c64 0 115.167 29.5 153.5 88.5s57.5 122.167 57.5 189.5zM500.001 701
c-3.33301 -14 -6.99609 -26.1689 -10.9961 -36.502s-10 -20.666 -18 -30.999s-16.833 -18.5 -26.5 -24.5s-20.834 -9 -33.501 -9s-23.5 1.83301 -32.5 5.5s-21.333 9.83398 -37 18.501l-41 22.5c-11.667 6.33301 -21.5 9.5 -29.5 9.5c-11.333 0 -21.5 -6 -30.5 -18
s-14.833 -24.667 -17.5 -38h-41c8 29.333 19.167 53.5 33.5 72.5s34.166 28.5 59.499 28.5c11.333 0 22.166 -2.16699 32.499 -6.5s23.666 -11.5 39.999 -21.5s29 -17.167 38 -21.5s18.833 -6.5 29.5 -6.5c9.33301 0 18.333 6.33301 27 19s14.667 25 18 37h40z" />
    <glyph glyph-name="odieresis" unicode="&#xf6;" 
d="M506 329c0 -94 -24.999 -174.833 -74.999 -242.5s-120.333 -101.5 -211 -101.5c-65.333 0 -116 19.333 -152 58s-54 91 -54 157c0 90 26 167.667 78 233s122 98 210 98c61.333 0 110.666 -18 147.999 -54s56 -85.333 56 -148zM443.001 316
c0 49.333 -13 88.666 -39 117.999s-63.667 44 -113 44c-64.667 0 -116.5 -28.333 -155.5 -85s-58.5 -119 -58.5 -187c0 -51.333 13.167 -92.166 39.5 -122.499s64.833 -45.5 115.5 -45.5c64 0 115.167 29.5 153.5 88.5s57.5 122.167 57.5 189.5zM401.001 703h64l-20 -102
h-63zM242.001 703h64l-20 -102h-63z" />
    <glyph glyph-name="divide" unicode="&#xf7;" horiz-adv-x="600" 
d="M49 225v53h503v-53h-503zM300 509c15.333 0 28.499 -5.5 39.499 -16.5s16.5 -24.167 16.5 -39.5c0 -14 -5.5 -26.833 -16.5 -38.5s-23.833 -17.5 -38.5 -17.5c-15.333 0 -28.666 5.33301 -39.999 16s-17 24 -17 40s5.33301 29.333 16 40s24 16 40 16zM299.999 106
c15.333 0 28.499 -5.5 39.499 -16.5s16.5 -24.167 16.5 -39.5c0 -14 -5.5 -26.833 -16.5 -38.5s-23.833 -17.5 -38.5 -17.5c-15.333 0 -28.666 5.33301 -39.999 16s-17 24 -17 40s5.33301 29.333 16 40s24 16 40 16z" />
    <glyph glyph-name="oslash" unicode="&#xf8;" 
d="M114 87c12.667 -15.333 28.832 -27.333 48.499 -36s42.834 -13 69.501 -13c64 0 115.167 29.5 153.5 88.5s57.5 122.167 57.5 189.5c0 31.333 -5.66699 59.333 -17 84zM511.998 530l21.999 -21.001l-60 -61c21.333 -33.333 32 -73 32 -119c0 -94 -25 -174.833 -75 -242.5
s-120.333 -101.5 -211 -101.5c-31.333 0 -59.666 4.83301 -84.999 14.5s-47 23.834 -65 42.501l-64 -64l-20 22l65 65c-24.667 37.333 -37 82.333 -37 135c0 90 26 167.667 78 233s122 98 210 98c64 0 114.667 -19.667 152 -59zM408.997 426.999c-26.667 34 -66 51 -118 51
c-64.667 0 -116.5 -28.333 -155.5 -85s-58.5 -119 -58.5 -187c0 -38 6.66699 -69.333 20 -94z" />
    <glyph glyph-name="ugrave" unicode="&#xf9;" horiz-adv-x="537" 
d="M402 0l-57.999 0.00195312l18 94c-21.333 -32 -48.5 -58.167 -81.5 -78.5s-67.833 -30.5 -104.5 -30.5c-48 0 -86 11.167 -114 33.5s-42 57.5 -42 105.5c0 15.333 2.66699 35.666 8 60.999l71 331h63l-72 -333c-4.66699 -18.667 -7 -36 -7 -52
c0 -32 10.167 -55.5 30.5 -70.5s46.166 -22.5 77.499 -22.5c46.667 0 88.5 19.167 125.5 57.5s62.5 90.166 76.5 155.499l57 265h63zM287.001 729.002l82 -144h-50l-106 144h74z" />
    <glyph glyph-name="uacute" unicode="&#xfa;" horiz-adv-x="537" 
d="M402 0l-57.999 0.00195312l18 94c-21.333 -32 -48.5 -58.167 -81.5 -78.5s-67.833 -30.5 -104.5 -30.5c-48 0 -86 11.167 -114 33.5s-42 57.5 -42 105.5c0 15.333 2.66699 35.666 8 60.999l71 331h63l-72 -333c-4.66699 -18.667 -7 -36 -7 -52
c0 -32 10.167 -55.5 30.5 -70.5s46.166 -22.5 77.499 -22.5c46.667 0 88.5 19.167 125.5 57.5s62.5 90.166 76.5 155.499l57 265h63zM376.001 729.002h81l-144 -144h-53z" />
    <glyph glyph-name="ucircumflex" unicode="&#xfb;" horiz-adv-x="537" 
d="M402 0l-57.999 0.00195312l18 94c-21.333 -32 -48.5 -58.167 -81.5 -78.5s-67.833 -30.5 -104.5 -30.5c-48 0 -86 11.167 -114 33.5s-42 57.5 -42 105.5c0 15.333 2.66699 35.666 8 60.999l71 331h63l-72 -333c-4.66699 -18.667 -7 -36 -7 -52
c0 -32 10.167 -55.5 30.5 -70.5s46.166 -22.5 77.499 -22.5c46.667 0 88.5 19.167 125.5 57.5s62.5 90.166 76.5 155.499l57 265h63zM224.001 585.002h-61l136 144h63l86 -144h-57l-66 106z" />
    <glyph glyph-name="udieresis" unicode="&#xfc;" horiz-adv-x="537" 
d="M402 0l-57.999 0.00195312l18 94c-21.333 -32 -48.5 -58.167 -81.5 -78.5s-67.833 -30.5 -104.5 -30.5c-48 0 -86 11.167 -114 33.5s-42 57.5 -42 105.5c0 15.333 2.66699 35.666 8 60.999l71 331h63l-72 -333c-4.66699 -18.667 -7 -36 -7 -52
c0 -32 10.167 -55.5 30.5 -70.5s46.166 -22.5 77.499 -22.5c46.667 0 88.5 19.167 125.5 57.5s62.5 90.166 76.5 155.499l57 265h63zM381.001 703.002h64l-20 -102h-63zM222.001 703.002h64l-20 -102h-63z" />
    <glyph glyph-name="ydieresis" unicode="&#xff;" horiz-adv-x="463" 
d="M-43 -135l53.999 -3c17.333 0 32.833 5.33301 46.5 16s25.167 24 34.5 40l47 82l-95 516h66l74 -438l240 438h68l-367 -638c-26 -46 -67.667 -69 -125 -69c-6.66699 0 -16.667 0.833008 -30 2.5s-21.666 2.5 -24.999 2.5zM353.999 703h64l-20 -102h-63zM194.999 703h64
l-20 -102h-63z" />
    <glyph glyph-name="dotlessi" unicode="&#x131;" horiz-adv-x="185" 
d="M-11 0l111 516h63l-111 -516h-63z" />
    <glyph glyph-name="OE" unicode="&#x152;" horiz-adv-x="1037" 
d="M607 513l4 28c0 40 -20 71.667 -60 95s-84 35 -132 35c-92 0 -165.833 -38 -221.5 -114s-83.5 -163 -83.5 -261c0 -72.667 18 -133 54 -181s89.333 -72 160 -72c52.667 0 99 15.167 139 45.5s65.333 70.833 76 121.5zM652 398l350.001 -0.000976562l-13 -58h-350
l-59 -282h389l-13 -58h-455l14 64l-2 2c-20 -27.333 -47 -47.666 -81 -60.999s-69.667 -20 -107 -20c-92.667 0 -162.334 28.5 -209.001 85.5s-70 132.833 -70 227.5c0 114 34.667 214.333 104 301s161 130 275 130c43.333 0 83.833 -8.33301 121.5 -25
s67.5 -42.667 89.5 -78l19 88h444l-13 -58h-380z" />
    <glyph glyph-name="oe" unicode="&#x153;" horiz-adv-x="907" 
d="M471 241c-2.66699 -8 -4.66992 -18.334 -6.00293 -31.001s-2 -25 -2 -37c0 -41.333 13.167 -74.166 39.5 -98.499s60.5 -36.5 102.5 -36.5s77.667 11.167 107 33.5s50 53.833 62 94.5h63c-18 -56 -47.333 -100.167 -88 -132.5s-90 -48.5 -148 -48.5
c-48 0 -87.667 10.833 -119 32.5s-52.333 55.5 -63 101.5c-19.333 -40.667 -47.166 -73.167 -83.499 -97.5s-76.833 -36.5 -121.5 -36.5c-61.333 0 -108.666 18.667 -141.999 56s-50 88 -50 152c0 88 25.833 166.333 77.5 235s119.834 103 204.501 103
c43.333 0 80.5 -11.333 111.5 -34s49.167 -55 54.5 -97c22 41.333 51.667 73.5 89 96.5s79.333 34.5 126 34.5c62 0 108.167 -19.5 138.5 -58.5s45.5 -89.167 45.5 -150.5c0 -13.333 -0.833008 -25.333 -2.5 -36s-4.5 -25.667 -8.5 -45h-387zM84.9971 194.999
c0 -46.667 11.332 -84.5 33.999 -113.5s56.667 -43.5 102 -43.5c69.333 0 120.833 32.333 154.5 97s50.5 135 50.5 211c0 40 -11.667 72 -35 96s-55.333 36 -96 36c-65.333 0 -116.666 -29.833 -153.999 -89.5s-56 -124.167 -56 -193.5zM802.996 293.999l2.99902 44
c0 41.333 -11.5 75 -34.5 101s-56.833 39 -101.5 39c-51.333 0 -92.666 -16.833 -123.999 -50.5s-53 -78.167 -65 -133.5h322z" />
    <glyph glyph-name="Ydieresis" unicode="&#x178;" horiz-adv-x="574" 
d="M598 714h83l-358 -426l-63 -288h-69l65 295l-190 419h72l161 -362zM410 881h64l-20 -102h-63zM251 881h64l-20 -102h-63z" />
    <glyph glyph-name="florin" unicode="&#x192;" 
d="M154 439l100.004 0.000976562l34 125c12 46 30.333 82.5 55 109.5s59.667 40.5 105 40.5c11.333 0 22.666 -0.333008 33.999 -1s22.666 -2 33.999 -4l-14 -52c-7.33301 0.666992 -14.166 1.5 -20.499 2.5s-13.833 1.5 -22.5 1.5c-29.333 0 -52.333 -8 -69 -24
s-29.334 -40.333 -38.001 -73l-34 -125h118l-14 -53h-119l-117 -429c-11.333 -40.667 -28.833 -72.5 -52.5 -95.5s-55.834 -34.5 -96.501 -34.5c-20.667 0 -39.334 1.33301 -56.001 4l14 53c6 -0.666992 12 -1.5 18 -2.5s13 -1.5 21 -1.5c21.333 0 39.333 6.16699 54 18.5
s27.667 38.166 39 77.499l112 410h-99z" />
    <glyph glyph-name="hungarumlaut" unicode="&#x2ba;" horiz-adv-x="185" 
d="M128 729h81l-144 -144h-53zM276 729h81l-144 -144h-53z" />
    <glyph glyph-name="caron" unicode="&#x2c7;" horiz-adv-x="185" 
d="M255 729h61l-136 -144h-63l-86 144h57l66 -109z" />
    <glyph glyph-name="macron" unicode="&#x2c9;" horiz-adv-x="185" 
d="M28 627l8 45h256l-8 -45h-256z" />
    <glyph glyph-name="breve" unicode="&#x2d8;" horiz-adv-x="185" 
d="M64 726c0 -27.333 8 -48.333 24 -63s38 -22 66 -22c60 0 99.333 28.333 118 85h37c-6.66699 -38.667 -24.667 -70 -54 -94s-64 -36 -104 -36c-38.667 0 -69.167 11.833 -91.5 35.5s-33.5 55.167 -33.5 94.5h38z" />
    <glyph glyph-name="dotaccent" unicode="&#x2d9;" horiz-adv-x="185" 
d="M136 703h64l-20 -102h-63z" />
    <glyph glyph-name="ring" unicode="&#x2da;" horiz-adv-x="185" 
d="M225 674c0 16.667 -6.66699 31.668 -20 45.001s-28.666 20 -45.999 20s-32.5 -6.5 -45.5 -19.5s-19.5 -28.167 -19.5 -45.5c0 -18 6.5 -33.5 19.5 -46.5s28.167 -19.5 45.5 -19.5s32.666 6.66699 45.999 20s20 28.666 20 45.999zM60 674.001
c0 26.667 9.83105 49.832 29.498 69.499s42.834 29.5 69.501 29.5s50 -9.66699 70 -29s30 -42.666 30 -69.999c0 -28 -9.66699 -51.667 -29 -71s-43 -29 -71 -29c-27.333 0 -50.666 9.66699 -69.999 29s-29 43 -29 71z" />
    <glyph glyph-name="ogonek" unicode="&#x2db;" horiz-adv-x="185" 
d="M175 0c-38 -25.333 -66.5 -49.501 -85.5 -72.501s-28.5 -42.833 -28.5 -59.5c0 -9.33301 1.83301 -16.166 5.5 -20.499s10.167 -6.5 19.5 -6.5c14 0 26.5 4 37.5 12s22.5 19 34.5 33l29 -25c-31.333 -43.333 -69.333 -65 -114 -65c-27.333 0 -47.5 5.33301 -60.5 16
s-19.5 24 -19.5 40c0 32 12.167 59.833 36.5 83.5s53.5 45.167 87.5 64.5h58z" />
    <glyph glyph-name="circumflex" unicode="&#x302;" horiz-adv-x="185" 
d="M58 585h-61l136 144h63l86 -144h-57l-66 106z" />
    <glyph glyph-name="tilde" unicode="&#x303;" horiz-adv-x="185" 
d="M314 701c-3.33301 -14 -6.99609 -26.1689 -10.9961 -36.502s-10 -20.666 -18 -30.999s-16.833 -18.5 -26.5 -24.5s-20.834 -9 -33.501 -9s-23.5 1.83301 -32.5 5.5s-21.333 9.83398 -37 18.501l-41 22.5c-11.667 6.33301 -21.5 9.5 -29.5 9.5
c-11.333 0 -21.5 -6 -30.5 -18s-14.833 -24.667 -17.5 -38h-41c8 29.333 19.167 53.5 33.5 72.5s34.166 28.5 59.499 28.5c11.333 0 22.166 -2.16699 32.499 -6.5s23.666 -11.5 39.999 -21.5s29 -17.167 38 -21.5s18.833 -6.5 29.5 -6.5c9.33301 0 18.333 6.33301 27 19
s14.667 25 18 37h40z" />
    <glyph glyph-name="summation" unicode="&#x3a3;" horiz-adv-x="713" 
d="M618 643l14.999 -128.999h-44c-21.333 70 -49.666 118 -84.999 144s-91.666 39 -168.999 39h-132l315 -431l-344 -394h187c81.333 0 138.833 10.5 172.5 31.5s61.167 59.833 82.5 116.5h45l-30 -130l-2 -7c-15.333 -66 -52.333 -99 -111 -99h-482l389 446l-375 514h460
c43.333 0 70.666 -5 81.999 -15c11.333 -8.66699 20 -37.334 26 -86.001z" />
    <glyph glyph-name="Omega" unicode="&#x3a9;" horiz-adv-x="768" 
d="M593 90c32 0 54.665 6.33203 67.998 18.999s20 35 20 67h23v-176h-272v180c51.333 10 92.166 35.5 122.499 76.5s45.5 91.5 45.5 151.5c0 70.667 -19.667 126.834 -59 168.501s-91.666 62.5 -156.999 62.5s-117.666 -20.833 -156.999 -62.5s-59 -97.834 -59 -168.501
c0 -60 14.833 -110.333 44.5 -151s70.834 -66.334 123.501 -77.001v-180h-272v176h23c0 -32 6.33301 -54.333 19 -67s35.667 -19 69 -19h123v59c-78.667 14 -139.667 43.667 -183 89s-65 102 -65 170c0 80.667 30.833 145.334 92.5 194.001s142.167 73 241.5 73
s179.833 -24.5 241.5 -73.5s92.5 -113.5 92.5 -193.5c0 -66.667 -21.333 -122.667 -64 -168s-104 -75.666 -184 -90.999v-59h123z" />
    <glyph glyph-name="pi" unicode="&#x3c0;" horiz-adv-x="549" 
d="M404 373l-1.00391 -24.002l-3 -150v-40c0 -56 2.83301 -91 8.5 -105s15.834 -21 30.501 -21c18.667 0 32.334 9.66699 41.001 29c11.333 20.667 17 50.334 17 89.001h25v-5c0 -53.333 -8.66699 -92.666 -26 -117.999s-44 -38 -80 -38c-37.333 0 -63.833 13.333 -79.5 40
s-23.5 81.334 -23.5 164.001l1 78l3 104l-50 1l-77 2c0 -156 -7.66699 -259.833 -23 -311.5s-42 -77.5 -80 -77.5c-23.333 0 -40.833 9.66699 -52.5 29s-17.5 48 -17.5 86v19h24c0 -18 3.16699 -31.167 9.5 -39.5s15.5 -12.5 27.5 -12.5c28 0 46.167 15.667 54.5 47
s14.333 68.166 18 110.499s5.5 92.166 5.5 149.499h-22c-25.333 0 -45.166 -4.5 -59.499 -13.5s-23.5 -22.167 -27.5 -39.5h-23c0 22.667 3.33301 41.834 10 57.501s18.834 30.5 36.501 44.5s55.167 21 112.5 21l102 -3l152 -3c22.667 0 39.167 2.33301 49.5 7
s15.833 11.667 16.5 21l23 1c0 -35.333 -7.83301 -60.833 -23.5 -76.5s-40.5 -23.5 -74.5 -23.5h-14z" />
    <glyph glyph-name="endash" unicode="&#x2013;" horiz-adv-x="500" 
d="M-24 246l12 58h500l-12 -58h-500z" />
    <glyph glyph-name="emdash" unicode="&#x2014;" horiz-adv-x="1000" 
d="M976 246h-1000l12 58h1000z" />
    <glyph glyph-name="quoteleft" unicode="&#x2018;" horiz-adv-x="278" 
d="M263 674c-21.333 -6.66699 -36.333 -17.3311 -45 -31.998s-16.667 -36.334 -24 -65.001h42l-24 -105h-84l33 139c7.33301 31.333 19 54.166 35 68.499s41 25.833 75 34.5z" />
    <glyph glyph-name="quoteright" unicode="&#x2019;" horiz-adv-x="278" 
d="M118 511c21.333 6.66699 36.333 17.3311 45 31.998s16.667 36.334 24 65.001h-42l24 106h84l-33 -140c-7.33301 -31.333 -19 -54.166 -35 -68.499s-41 -25.833 -75 -34.5z" />
    <glyph glyph-name="quotesinglbase" unicode="&#x201a;" horiz-adv-x="278" 
d="M-4 -97c21.333 6.66699 36.333 17.3311 45 31.998s16.667 36.334 24 65.001h-42l24 106h84l-33 -140c-7.33301 -31.333 -19 -54.166 -35 -68.499s-41 -25.833 -75 -34.5z" />
    <glyph glyph-name="quotedblleft" unicode="&#x201c;" horiz-adv-x="370" 
d="M230 674c-21.333 -6.66699 -36.333 -17.3311 -45 -31.998s-16.667 -36.334 -24 -65.001h42l-24 -105h-84l33 139c7.33301 31.333 19 54.166 35 68.499s41 25.833 75 34.5zM383 674.003c-21.333 -6.66699 -36.333 -17.3311 -45 -31.998s-16.667 -36.334 -24 -65.001h42
l-24 -105h-84l33 139c7.33301 31.333 19 54.166 35 68.499s41 25.833 75 34.5z" />
    <glyph glyph-name="quotedblright" unicode="&#x201d;" horiz-adv-x="370" 
d="M75 511c21.333 6.66699 36.333 17.3311 45 31.998s16.667 36.334 24 65.001h-42l24 106h84l-33 -140c-7.33301 -31.333 -19 -54.166 -35 -68.499s-41 -25.833 -75 -34.5zM228 510.997c21.333 6.66699 36.333 17.3311 45 31.998s16.667 36.334 24 65.001h-42l24 106h84
l-33 -140c-7.33301 -31.333 -19 -54.166 -35 -68.499s-41 -25.833 -75 -34.5z" />
    <glyph glyph-name="quotedblbase" unicode="&#x201e;" horiz-adv-x="370" 
d="M-27 -97c21.333 6.66699 36.333 17.3311 45 31.998s16.667 36.334 24 65.001h-42l24 106h84l-33 -140c-7.33301 -31.333 -19 -54.166 -35 -68.499s-41 -25.833 -75 -34.5zM126 -97.0029c21.333 6.66699 36.333 17.3311 45 31.998s16.667 36.334 24 65.001h-42l24 106h84
l-33 -140c-7.33301 -31.333 -19 -54.166 -35 -68.499s-41 -25.833 -75 -34.5z" />
    <glyph glyph-name="dagger" unicode="&#x2020;" 
d="M205 -149h-63l125 589h-200l12 53h200l47 221h63l-47 -221h197l-11 -53h-198z" />
    <glyph glyph-name="daggerdbl" unicode="&#x2021;" 
d="M-13 47l12 53h198l77 363h-199l11 53h200l42 198h63l-42 -198h196l-10 -53h-198l-77 -363h197l-10 -53h-198l-42 -196h-63l42 196h-199z" />
    <glyph glyph-name="bullet" unicode="&#x2022;" horiz-adv-x="500" 
d="M250 535c49.333 0 91.5 -17.167 126.5 -51.5s52.5 -76.5 52.5 -126.5s-17.333 -92.333 -52 -127s-77 -52 -127 -52c-49.333 0 -91.333 17.333 -126 52s-52 77 -52 127c0 49.333 17.333 91.333 52 126s76.667 52 126 52z" />
    <glyph glyph-name="ellipsis" unicode="&#x2026;" horiz-adv-x="1000" 
d="M386 0l23 106h85l-24 -106h-84zM52 0l23 106h85l-24 -106h-84zM720 0l23 106h85l-24 -106h-84z" />
    <glyph glyph-name="perthousand" unicode="&#x2030;" horiz-adv-x="1056" 
d="M708 118c0 55.333 15.3311 103.332 45.998 143.999s73.334 61 128.001 61c40.667 0 71.834 -12.167 93.501 -36.5s32.5 -57.166 32.5 -98.499c0 -51.333 -15.5 -98 -46.5 -140s-71.833 -63 -122.5 -63c-87.333 0 -131 44.333 -131 133zM954.998 195.999
c0 54.667 -27.332 82 -81.999 82c-37.333 0 -65.333 -17.833 -84 -53.5s-28 -74.167 -28 -115.5c0 -23.333 6.66699 -42.333 20 -57s32.666 -22 57.999 -22c38 0 66.833 17.5 86.5 52.5s29.5 72.833 29.5 113.5zM354.999 117.999c0 55.333 15.3311 103.332 45.998 143.999
s73.334 61 128.001 61c40.667 0 71.834 -12.167 93.501 -36.5s32.5 -57.166 32.5 -98.499c0 -51.333 -15.5 -98 -46.5 -140s-71.833 -63 -122.5 -63c-87.333 0 -131 44.333 -131 133zM601.997 195.998c0 54.667 -27.332 82 -81.999 82c-37.333 0 -65.333 -17.833 -84 -53.5
s-28 -74.167 -28 -115.5c0 -23.333 6.66699 -42.333 20 -57s32.666 -22 57.999 -22c38 0 66.833 17.5 86.5 52.5s29.5 72.833 29.5 113.5zM312.998 578.998c0 54.667 -27.332 82 -81.999 82c-37.333 0 -65.333 -17.833 -84 -53.5s-28 -74.167 -28 -115.5
c0 -23.333 6.66699 -42.333 20 -57s32.666 -22 57.999 -22c38 0 66.833 17.5 86.5 52.5s29.5 72.833 29.5 113.5zM617.999 722.998h55l-571 -755h-54zM65.999 500.998c0 55.333 15.3311 103.332 45.998 143.999s73.334 61 128.001 61c40.667 0 71.834 -12.167 93.501 -36.5
s32.5 -57.166 32.5 -98.499c0 -51.333 -15.5 -98 -46.5 -140s-71.833 -63 -122.5 -63c-87.333 0 -131 44.333 -131 133z" />
    <glyph glyph-name="guilsinglleft" unicode="&#x2039;" horiz-adv-x="259" 
d="M51 257l15 64l159 113l-15 -68l-116 -84l75 -102l-12 -63z" />
    <glyph glyph-name="guilsinglright" unicode="&#x203a;" horiz-adv-x="259" 
d="M184 294l-15 -64l-159 -113l15 68l116 84l-75 102l12 63z" />
    <glyph glyph-name="trademark" unicode="&#x2122;" horiz-adv-x="990" 
d="M216 302v367h-134v45h321v-45h-134v-367h-53zM476 302v412h85l133 -334l129 334h85v-412h-53v364l-148 -364h-30l-146 364l-2 -364h-53z" />
    <glyph glyph-name="partialdiff" unicode="&#x2202;" horiz-adv-x="494" 
d="M256 349c-34.667 0 -63.332 -20 -85.999 -60s-34 -93.667 -34 -161c0 -38 7.16699 -67.333 21.5 -88s35.166 -31 62.499 -31c35.333 0 64.333 20.667 87 62s34 92.333 34 153c0 38.667 -7.16699 69.167 -21.5 91.5s-35.5 33.5 -63.5 33.5zM358.002 287
c2.66699 9.33301 4.83203 18.6689 6.49902 28.002s2.5 19.666 2.5 30.999l3 89c0 56.667 -5.16699 98.667 -15.5 126s-26.166 41 -47.499 41c-12 0 -28.667 -11.667 -50 -35s-40 -35 -56 -35c-10.667 0 -19.167 2.5 -25.5 7.5s-10.166 13.167 -11.499 24.5
c0 19.333 10.167 36 30.5 50s44.166 21 71.499 21c51.333 0 88.5 -18 111.5 -54s38.5 -70.333 46.5 -103s12 -69.667 12 -111c0 -108.667 -21.5 -199.167 -64.5 -271.5s-95.5 -108.5 -157.5 -108.5c-45.333 0 -82 17 -110 51s-42 79.667 -42 137
c0 54.667 17.667 102.5 53 143.5s77 61.5 125 61.5c29.333 0 53.5 -7.33301 72.5 -22s34.167 -38.334 45.5 -71.001z" />
    <glyph glyph-name="Delta" unicode="&#x2206;" horiz-adv-x="612" 
d="M92 45h373l-186 459zM595 0h-574l276 672h22z" />
    <glyph glyph-name="product" unicode="&#x220f;" horiz-adv-x="823" 
d="M118 -176v880h-88v40h767v-40h-88v-880h88v-40h-264v40h84v880h-407v-880h84v-40h-264v40h88z" />
    <glyph glyph-name="fraction" unicode="&#x2215;" horiz-adv-x="167" 
d="M279 725h53l-444 -759h-53z" />
    <glyph glyph-name="periodcentered" unicode="&#x2219;" horiz-adv-x="278" 
d="M127 368c15.333 0 28.499 -5.5 39.499 -16.5s16.5 -24.167 16.5 -39.5c0 -14 -5.5 -26.833 -16.5 -38.5s-23.833 -17.5 -38.5 -17.5c-15.333 0 -28.666 5.33301 -39.999 16s-17 24 -17 40s5.33301 29.333 16 40s24 16 40 16z" />
    <glyph glyph-name="radical" unicode="&#x221a;" horiz-adv-x="549" 
d="M594 764h-57l-290 -784h-32l-156 431l-61 -22l-12 39l138 48l125 -346l252 681h93v-47z" />
    <glyph glyph-name="infinity" unicode="&#x221e;" horiz-adv-x="713" 
d="M383 271c15.333 -30 34.668 -53.332 58.001 -69.999c23.333 -15.333 49 -23 77 -23c34.667 0 62.834 11.667 84.501 35s32.5 53.333 32.5 90c0 37.333 -10 67.166 -30 89.499s-46.667 33.5 -80 33.5c-24.667 0 -48.334 -12 -71.001 -36s-46.334 -63.667 -71.001 -119z
M330.002 327.001c-17.333 30.667 -37 53.833 -59 69.5s-47.333 23.5 -76 23.5c-34 0 -62 -11.667 -84 -35s-33 -53.333 -33 -90c0 -36 9.83301 -65.5 29.5 -88.5s45.167 -34.5 76.5 -34.5c26.667 0 50.5 10.5 71.5 31.5s45.833 62.167 74.5 123.5zM366.002 238
c-22 -41.333 -45.835 -72.333 -71.502 -93s-54.167 -31 -85.5 -31c-44 0 -81 17.5 -111 52.5s-45 78.833 -45 131.5c0 55.333 13.667 100.166 41 134.499s62.333 51.5 105 51.5c31.333 0 58.833 -9.83301 82.5 -29.5s45.5 -51.167 65.5 -94.5
c20.667 41.333 43.834 72.333 69.501 93s54.834 31 87.501 31c42 0 78.333 -17.667 109 -53s46 -79 46 -131c0 -55.333 -13.5 -100.166 -40.5 -134.499s-61.833 -51.5 -104.5 -51.5c-30.667 0 -58.667 10 -84 30c-24 20.667 -45.333 52 -64 94z" />
    <glyph glyph-name="integral" unicode="&#x222b;" horiz-adv-x="274" 
d="M283 757c24 0 43.499 -6.16602 58.499 -18.499s22.5 -28.5 22.5 -48.5c0 -13.333 -4.33301 -24.666 -13 -33.999s-20.667 -14 -36 -14c-19.333 0 -34 10.667 -44 32s-19.667 32 -29 32c-38 0 -57 -103.333 -57 -310l-3 -98c0 -42 -1.5 -82 -4.5 -120
s-7.66699 -80.667 -14 -128s-16.666 -87.333 -30.999 -120s-34.333 -59.334 -60 -80.001s-52.834 -31 -81.501 -31c-23.333 0 -42.666 6.16699 -57.999 18.5s-23 28.5 -23 48.5c0 14.667 4.16699 26.167 12.5 34.5s20.5 12.5 36.5 12.5c19.333 0 34 -10.333 44 -31
s20 -31.334 30 -32.001c38 0 57 108 57 324l2 84c0 40 1.33301 78.667 4 116s7.16699 79.833 13.5 127.5s16.833 88.5 31.5 122.5s34.5 61.333 59.5 82s52.5 31 82.5 31z" />
    <glyph glyph-name="approxequal" unicode="&#x2248;" horiz-adv-x="549" 
d="M15 100l0.000976562 77c32.667 20.667 61.667 35.5 87 44.5s50 13.5 74 13.5c29.333 0 67.666 -8 114.999 -24s80.333 -24 99 -24s39.167 5 61.5 15s49.833 27.333 82.5 52v-78c-28 -18.667 -53.5 -32.5 -76.5 -41.5s-47.167 -13.5 -72.5 -13.5
c-21.333 0 -56 7.83301 -104 23.5s-86.667 23.5 -116 23.5c-18.667 0 -36.5 -3.66699 -53.5 -11s-33 -15.5 -48 -24.5s-31.167 -19.833 -48.5 -32.5zM15.001 219v77c15.333 9.33301 29.833 17.666 43.5 24.999s30.5 14.5 50.5 21.5s42 10.5 66 10.5
c28 0 66.167 -7.83301 114.5 -23.5s81.833 -23.5 100.5 -23.5c18 0 38 4.83301 60 14.5s50 26.834 84 51.501v-77c-12 -8 -25.667 -16 -41 -24s-31.666 -15.167 -48.999 -21.5s-37 -9.5 -59 -9.5s-56.833 7.83301 -104.5 23.5s-84.5 23.5 -110.5 23.5
c-23.333 0 -45.333 -4.5 -66 -13.5s-50.334 -27.167 -89.001 -54.5z" />
    <glyph glyph-name="notequal" unicode="&#x2260;" horiz-adv-x="549" 
d="M413 336h91v-64h-149l-73 -72h222v-64h-281l-118 -118l-43 44l74 74h-91v64h150l73 72h-223v64h281l118 118l44 -44z" />
    <glyph glyph-name="lessequal" unicode="&#x2264;" horiz-adv-x="549" 
d="M506 18h-463v68h463v-68zM162 280l344 -107v-70l-462 145v65l462 145v-70z" />
    <glyph glyph-name="greaterequal" unicode="&#x2265;" horiz-adv-x="549" 
d="M506 18h-463v68h463v-68zM506 248l-463 -145v70l344 107l-344 108v70l463 -145v-65z" />
    <glyph glyph-name="lozenge" unicode="&#x25ca;" horiz-adv-x="494" 
d="M247 688l-188 -399l188 -403l188 403zM247 807l244 -518l-244 -522l-244 522z" />
    <glyph glyph-name="apple" unicode="&#xf000;" horiz-adv-x="790" 
d="M408 594l-1 7.00098v11c0 40.667 15.333 78 46 112s69.334 55.333 116.001 64v-12l1 -18c0 -42.667 -16.833 -80.834 -50.5 -114.501s-66.834 -50.5 -99.501 -50.5h-4zM735 197.001c-37.333 -80.667 -70.9971 -136.502 -100.997 -167.502s-63 -46.5 -99 -46.5
c-16.667 0 -38 5.33301 -64 16s-46 16 -60 16c-15.333 0 -36.666 -5.33301 -63.999 -16s-48 -16 -62 -16c-20 0 -41 7 -63 21c-8.66699 6.66699 -18.834 15.834 -30.501 27.501s-27.834 31.667 -48.501 60s-40.5 68.5 -59.5 120.5s-28.5 101.333 -28.5 148
c0 71.333 20.5 129.5 61.5 174.5s93.5 67.5 157.5 67.5c10.667 0 22.5 -1.33301 35.5 -4s30.167 -8.33398 51.5 -17.001s37.666 -13 48.999 -13c12 0 32.333 5.66699 61 17s53 17 73 17c36.667 0 69.167 -6.5 97.5 -19.5s54.166 -33.167 77.499 -60.5
c-32.667 -20.667 -57.167 -44.167 -73.5 -70.5s-24.5 -56.166 -24.5 -89.499c0 -36 10 -68.667 30 -98s48 -51.666 84 -66.999z" />
    <glyph glyph-name="fi" unicode="&#xf001;" horiz-adv-x="444" 
d="M359 516h63l-111 -516h-63zM402 714h63l-22 -101h-63zM284 463l-101 -0.000976562l-102 -463h-63l102 463h-90l12 53h89l16 75c8.66699 40.667 23.5 71.334 44.5 92.001s52.167 31 93.5 31c14.667 0 26.5 -0.333008 35.5 -1s18.833 -2.66699 29.5 -6l-11 -52l-39 6
c-28.667 0 -49.5 -5.5 -62.5 -16.5s-22.5 -29.833 -28.5 -56.5l-15 -72h102z" />
    <glyph glyph-name="fl" unicode="&#xf002;" horiz-adv-x="444" 
d="M284 463l-101 -0.000976562l-102 -463h-63l102 463h-90l12 53h89l16 75c8.66699 40.667 23.5 71.334 44.5 92.001s52.167 31 93.5 31c14.667 0 26.5 -0.333008 35.5 -1s18.833 -2.66699 29.5 -6l-11 -52l-39 6c-28.667 0 -49.5 -5.5 -62.5 -16.5
s-22.5 -29.833 -28.5 -56.5l-15 -72h102zM402 713.999h63l-154 -714h-63z" />
    <glyph glyph-name=".null" horiz-adv-x="0" 
 />
    <glyph glyph-name="nonmarkingreturn" horiz-adv-x="278" 
 />
    <glyph glyph-name="Lslash" horiz-adv-x="537" 
d="M159 714h68l-77 -359l252 153l-9 -54l-255 -155l-52 -241h395l-14 -58h-462l54 251l-94 -57l12 56l94 57z" />
    <glyph glyph-name="lslash" horiz-adv-x="185" 
d="M143 714h63l-58 -268l78 56l-11 -55l-79 -56l-84 -391h-63l73 338l-75 -53l12 55l75 53z" />
    <glyph glyph-name="Scaron" horiz-adv-x="630" 
d="M539 506c0 60 -15.502 102.498 -46.502 127.498s-78.5 37.5 -142.5 37.5c-49.333 0 -92 -12 -128 -36s-54 -59.667 -54 -107c0 -26.667 7.83301 -49.334 23.5 -68.001s47.834 -35.334 96.501 -50.001l76 -23c64 -19.333 112 -41 144 -65s48 -63 48 -117
c0 -51.333 -20.667 -100.833 -62 -148.5s-112.666 -71.5 -213.999 -71.5c-82.667 0 -148.167 20.833 -196.5 62.5s-72.5 104.167 -72.5 187.5h68c0 -67.333 17.333 -116.166 52 -146.499s86 -45.5 154 -45.5c52.667 0 99.667 13 141 39s62 64 62 114
c0 44 -14.167 74.167 -42.5 90.5s-73.166 33.5 -134.499 51.5l-70 21c-44.667 12.667 -79.334 32.334 -104.001 59.001s-37 62.334 -37 107.001c0 66.667 24.833 117.334 74.5 152.001s109.167 52 178.5 52c78 0 139.833 -17.5 185.5 -52.5s68.5 -91.833 68.5 -170.5h-68z
M477.998 906.998h61l-136 -144h-63l-86 144h57l66 -109z" />
    <glyph glyph-name="scaron" horiz-adv-x="481" 
d="M62 168c0 -46 13.833 -79.166 41.5 -99.499s62.5 -30.5 104.5 -30.5c33.333 0 63.333 8.16699 90 24.5s40 39.833 40 70.5c0 34.667 -13.5 58.667 -40.5 72s-61.5 28.166 -103.5 44.499s-74.667 34.166 -98 53.499s-35 48.333 -35 87c0 46 19.667 81 59 105
s83.333 36 132 36c56.667 0 101.5 -13.333 134.5 -40s49.5 -68.667 49.5 -126h-63c0 38 -10.833 66.333 -32.5 85s-51.167 28 -88.5 28c-34 0 -63.833 -6.66699 -89.5 -20s-38.5 -36 -38.5 -68c0 -22 9 -39.667 27 -53s50.667 -29.333 98 -48s84.5 -37.167 111.5 -55.5
s40.5 -48.5 40.5 -90.5c0 -53.333 -20.667 -93 -62 -119s-90 -39 -146 -39c-54 0 -99.833 15.333 -137.5 46s-56.5 76.334 -56.5 137.001h63zM393 729.001h61l-136 -144h-63l-86 144h57l66 -109z" />
    <glyph glyph-name="Zcaron" horiz-adv-x="574" 
d="M111 714h515l-12 -57l-571 -599h476l-13 -58h-556l13 60l569 596h-434zM450 907h61l-136 -144h-63l-86 144h57l66 -109z" />
    <glyph glyph-name="zcaron" horiz-adv-x="426" 
d="M55 516h388l-11 -50l-401 -413h331l-11 -53h-409l11 51l399 412h-308zM366 729h61l-136 -144h-63l-86 144h57l66 -109z" />
    <glyph glyph-name="brokenbar" horiz-adv-x="222" 
d="M85 260h53v-275h-53v275zM85 729h53v-275h-53v275z" />
    <glyph glyph-name="Eth" horiz-adv-x="685" 
d="M12 393h79l69 321h230c98 0 167.833 -24.667 209.5 -74s62.5 -120 62.5 -212c0 -119.333 -34.5 -220.5 -103.5 -303.5s-164.833 -124.5 -287.5 -124.5h-266l76 348h-79zM159 393h213.001l-10 -45h-213l-63 -290h172c111.333 0 195.166 36.667 251.499 110
s84.5 164.333 84.5 273c0 143.333 -71.667 215 -215 215h-163z" />
    <glyph glyph-name="glyph234" 
d="M77 196c0 -48.667 13 -87.167 39 -115.5s64.667 -42.5 116 -42.5c65.333 0 117.333 27.833 156 83.5s58 115.5 58 179.5c0 46 -13.167 82.833 -39.5 110.5s-64.833 41.5 -115.5 41.5c-64.667 0 -116.5 -27 -155.5 -81s-58.5 -112.667 -58.5 -176zM326 652
c-24.667 22.667 -52.667 41.001 -84 55.001l46 35c34 -16.667 64 -37.667 90 -63l117 59l26 -31l-115 -58c34.667 -38.667 60.5 -83.834 77.5 -135.501s25.5 -106.834 25.5 -165.501c0 -101.333 -24.333 -187.166 -73 -257.499s-120.667 -105.5 -216 -105.5
c-65.333 0 -116 18.333 -152 55s-54 86.667 -54 150c0 85.333 26 159.333 78 222s122 94 210 94c28.667 0 55.5 -4.66699 80.5 -14s45.833 -26.666 62.5 -51.999c-5.33301 35.333 -15.5 68.666 -30.5 99.999s-34.5 59 -58.5 83l-108 -55l-26 31z" />
    <glyph glyph-name="Yacute" horiz-adv-x="574" 
d="M598 714h83l-358 -426l-63 -288h-69l65 295l-190 419h72l161 -362zM395 907h81l-144 -144h-53z" />
    <glyph glyph-name="yacute" horiz-adv-x="463" 
d="M-43 -135l53.999 -3c17.333 0 32.833 5.33301 46.5 16s25.167 24 34.5 40l47 82l-95 516h66l74 -438l240 438h68l-367 -638c-26 -46 -67.667 -69 -125 -69c-6.66699 0 -16.667 0.833008 -30 2.5s-21.666 2.5 -24.999 2.5zM338.999 729h81l-144 -144h-53z" />
    <glyph glyph-name="Thorn" horiz-adv-x="630" 
d="M159 714h67.999l-26 -117h220c55.333 0 100.833 -15.833 136.5 -47.5s53.5 -74.5 53.5 -128.5c0 -72.667 -22.667 -129.5 -68 -170.5s-104.666 -61.5 -177.999 -61.5h-252l-40 -189h-68zM125.999 247h241c51.333 0 93.5 14.667 126.5 44s49.5 69.333 49.5 120
c0 44.667 -12.667 77.167 -38 97.5s-61 30.5 -107 30.5h-209z" />
    <glyph glyph-name="thorn" horiz-adv-x="574" 
d="M102 187c0 -46 12.668 -82.333 38.001 -109s60.666 -40 105.999 -40c67.333 0 120.833 29.833 160.5 89.5s59.5 125.167 59.5 196.5c0 46.667 -11.667 84 -35 112s-58 42 -104 42c-68 0 -122.5 -30.5 -163.5 -91.5s-61.5 -127.5 -61.5 -199.5zM149.001 714h63.001
l-62 -289c20.667 35.333 45.334 61.833 74.001 79.5s65 26.5 109 26.5c64 0 112.667 -19 146 -57s50 -89.333 50 -154c0 -84.667 -26.333 -161.667 -79 -231s-120.334 -104 -203.001 -104c-44 0 -80.833 9.5 -110.5 28.5s-47.834 48.833 -54.501 89.5l-65 -294h-63z" />
    <glyph glyph-name="minus" horiz-adv-x="600" 
d="M552 225h-503v53h503v-53z" />
    <glyph glyph-name="multiply" horiz-adv-x="600" 
d="M74 440l37 37l189 -189l189 189l37 -37l-189 -189l189 -189l-37 -37l-189 188l-189 -188l-37 37l188 189z" />
    <glyph glyph-name="onesuperior" horiz-adv-x="333" 
d="M117 622c31.333 4 59 11.5 83 22.5s44 28.5 60 52.5h38l-97 -423h-48l79 343c-16.667 -10 -37.5 -18.167 -62.5 -24.5s-45.5 -9.5 -61.5 -9.5z" />
    <glyph glyph-name="twosuperior" horiz-adv-x="333" 
d="M66 557c0 43.333 15.001 79.001 45.001 107.001s68.333 42 115 42c38.667 0 71 -9.83301 97 -29.5s39 -47.5 39 -83.5c0 -36.667 -11.167 -66.167 -33.5 -88.5s-53 -43.833 -92 -64.5l-110.5 -58c-36.667 -22.667 -56.667 -45.667 -60 -69h246l-7 -39h-294
c0 40.667 13.667 73.667 41 99s66.166 50.666 116.499 75.999s87.333 47.833 111 67.5s35.5 45.5 35.5 77.5c0 23.333 -8.83301 41.333 -26.5 54s-39.5 19 -65.5 19c-32.667 0 -59.167 -10.833 -79.5 -32.5s-30.5 -47.5 -30.5 -77.5h-47z" />
    <glyph glyph-name="threesuperior" horiz-adv-x="333" 
d="M73 570c8 44 24.666 77.668 49.999 101.001s60.333 35 105 35c39.333 0 71.333 -9.16699 96 -27.5s37 -45.5 37 -81.5c0 -26 -9 -48.333 -27 -67s-40.667 -30 -68 -34c21.333 -6 37.833 -16.833 49.5 -32.5s17.5 -34.5 17.5 -56.5c0 -44 -16.333 -78.667 -49 -104
s-73.667 -38 -123 -38c-50 0 -85.333 12.5 -106 37.5s-31 61.833 -31 110.5h41c0 -36 7.33301 -63.167 22 -81.5s40 -27.5 76 -27.5c34.667 0 63.834 9.5 87.501 28.5s35.5 43.167 35.5 72.5c0 25.333 -9.33301 43.666 -28 54.999s-43 17 -73 17h-22l7 39h26
c35.333 0 63.833 5.5 85.5 16.5s32.5 32.167 32.5 63.5c0 22.667 -8.33301 40.167 -25 52.5s-37.667 18.5 -63 18.5c-31.333 0 -56.5 -8.66699 -75.5 -26s-31.167 -41 -36.5 -71h-41z" />
    <glyph glyph-name="onehalf" horiz-adv-x="834" 
d="M574 725h53l-444 -759h-53zM92 622c31.333 4 59 11.5 83 22.5s44 28.5 60 52.5h38l-97 -423h-48l79 343c-16.667 -10 -37.5 -18.167 -62.5 -24.5s-45.5 -9.5 -61.5 -9.5zM503 283c0 43.333 15.001 79.001 45.001 107.001s68.333 42 115 42c38.667 0 71 -9.83301 97 -29.5
s39 -47.5 39 -83.5c0 -36.667 -11.167 -66.167 -33.5 -88.5s-53 -43.833 -92 -64.5l-110.5 -58c-36.667 -22.667 -56.667 -45.667 -60 -69h246l-7 -39h-294c0 40.667 13.667 73.667 41 99s66.166 50.666 116.499 75.999s87.333 47.833 111 67.5s35.5 45.5 35.5 77.5
c0 23.333 -8.83301 41.333 -26.5 54s-39.5 19 -65.5 19c-32.667 0 -59.167 -10.833 -79.5 -32.5s-30.5 -47.5 -30.5 -77.5h-47z" />
    <glyph glyph-name="onequarter" horiz-adv-x="834" 
d="M598 725h53l-444 -759h-53zM117 622c31.333 4 59 11.5 83 22.5s44 28.5 60 52.5h38l-97 -423h-48l79 343c-16.667 -10 -37.5 -18.167 -62.5 -24.5s-45.5 -9.5 -61.5 -9.5zM727 420h45l-65 -282h63l-7 -39h-65l-23 -99h-47l23 99h-206l7 43zM502 138h157l49 210l-2 2z" />
    <glyph glyph-name="threequarters" horiz-adv-x="834" 
d="M73 570c8 44 24.666 77.668 49.999 101.001s60.333 35 105 35c39.333 0 71.333 -9.16699 96 -27.5s37 -45.5 37 -81.5c0 -26 -9 -48.333 -27 -67s-40.667 -30 -68 -34c21.333 -6 37.833 -16.833 49.5 -32.5s17.5 -34.5 17.5 -56.5c0 -44 -16.333 -78.667 -49 -104
s-73.667 -38 -123 -38c-50 0 -85.333 12.5 -106 37.5s-31 61.833 -31 110.5h41c0 -36 7.33301 -63.167 22 -81.5s40 -27.5 76 -27.5c34.667 0 63.834 9.5 87.501 28.5s35.5 43.167 35.5 72.5c0 25.333 -9.33301 43.666 -28 54.999s-43 17 -73 17h-22l7 39h26
c35.333 0 63.833 5.5 85.5 16.5s32.5 32.167 32.5 63.5c0 22.667 -8.33301 40.167 -25 52.5s-37.667 18.5 -63 18.5c-31.333 0 -56.5 -8.66699 -75.5 -26s-31.167 -41 -36.5 -71h-41zM632.999 725.001h53l-444 -759h-53zM726.999 420.001h45l-65 -282h63l-7 -39h-65l-23 -99
h-47l23 99h-206l7 43zM501.999 138.001h157l49 210l-2 2z" />
  </font>
</defs>
</svg>
