<?xml version="1.0" standalone="no"?>
<!DOCTYPE svg PUBLIC "-//W3C//DTD SVG 1.1//EN" "http://www.w3.org/Graphics/SVG/1.1/DTD/svg11.dtd" >
<svg xmlns="http://www.w3.org/2000/svg">
<metadata>
This is a custom SVG webfont generated by Font Squirrel.
Copyright   : Copyright c 199297 HewlettPackard All rights reserved
</metadata>
<defs>
<font id="UniversCondensedMedium" horiz-adv-x="944" >
<font-face units-per-em="2048" ascent="1638" descent="-410" />
<missing-glyph horiz-adv-x="453" />
<glyph unicode=" "  horiz-adv-x="453" />
<glyph unicode="&#x09;" horiz-adv-x="453" />
<glyph unicode="&#xa0;" horiz-adv-x="453" />
<glyph unicode="!" horiz-adv-x="604" d="M201 0v215h216v-215h-216zM201 1414h216l-38 -1053h-140z" />
<glyph unicode="&#x22;" horiz-adv-x="755" d="M127 1410h202l-38 -443h-125zM438 1410h202l-38 -443h-125z" />
<glyph unicode="#" d="M58 390l28 115h120l92 384h-121l28 115h121l101 421h129l-101 -421h207l101 421h129l-101 -421h111l-28 -115h-111l-92 -384h112l-28 -115h-112l-111 -463h-129l111 463h-207l-111 -463h-129l111 463h-120zM334 505h210l91 384h-209z" />
<glyph unicode="$" d="M176 460v18v42h181v-42q-1 -79 25 -109t97 -30q65 0 93.5 31t28.5 101q0 48 -30 81q-30 32 -138 101q-132 83 -186 156q-53 72 -53 166q0 97 84 164q53 42 117 57v230h168v-224q107 -11 152 -52q58 -52 58 -183v-22v-42h-176v42q2 59 -27.5 91t-86.5 32t-82 -28t-25 -91 q0 -37 27 -65q26 -27 122 -87q142 -91 200 -160q57 -68 57 -147q0 -143 -76 -215q-52 -49 -143 -65v-254h-168v253q-99 12 -152 59q-68 61 -67 192z" />
<glyph unicode="%" horiz-adv-x="1360" d="M152 906v304q0 122 47.5 172t163.5 50q118 0 164.5 -49t46.5 -173v-304q0 -142 -42 -189t-169 -47q-125 0 -168 48.5t-43 187.5zM295 904q0 -82 12.5 -106t55.5 -24q40 0 54 26.5t14 103.5v304q0 66 -15.5 93t-52.5 27t-52.5 -27.5t-15.5 -92.5v-304zM336 -77l559 1530 h118l-559 -1530h-118zM796 222v304q0 122 47.5 172t163.5 50q118 0 164.5 -49t46.5 -173v-304q0 -142 -42 -189t-169 -47q-125 0 -168 48.5t-43 187.5zM939 220q0 -82 12.5 -106t55.5 -24q40 0 54 26.5t14 103.5v304q0 66 -15.5 93t-52.5 27t-52.5 -27.5t-15.5 -92.5v-304z " />
<glyph unicode="&#x26;" horiz-adv-x="1246" d="M115 382q0 153 84 263q66 87 198 166q-79 102 -114 170q-44 86 -44 169q0 122 94.5 200t243.5 78q159 0 248.5 -72t89.5 -199q0 -138 -82 -238q-63 -79 -194 -149l302 -381q10 39 16 94q12 114 9 335h85h85q0 -302 -15 -399q-14 -87 -67 -173l195 -246h-104h-105l-94 118 q-47 -41 -103 -72q-118 -63 -263 -63q-219 0 -342 105.5t-123 293.5zM294 412q0 -125 77 -205q76 -79 196 -79q95 0 192 54q49 28 87 63l-359 451q-83 -50 -129 -104q-64 -76 -64 -180zM414 1132q0 -46 34 -105q29 -49 96 -137q89 47 135 97q65 69 65 163q0 59 -46 97 t-119 38t-119 -43t-46 -110z" />
<glyph unicode="'" horiz-adv-x="453" d="M133 1410h202l-30 -443h-141z" />
<glyph unicode="(" horiz-adv-x="453" d="M102 606q0 137 37 325t120 476h130q-63 -245 -90.5 -433.5t-27.5 -367.5q0 -209 27.5 -397t90.5 -404h-130q-83 288 -120 477q-37 188 -37 324z" />
<glyph unicode=")" horiz-adv-x="453" d="M86 -195q63 248 91 436t28 365q0 207 -28 395.5t-91 405.5h130q84 -290 121 -479q37 -188 37 -322q0 -135 -37 -323.5t-121 -477.5h-130z" />
<glyph unicode="*" d="M174 1070v125l234 -26l-141 189l108 64l99 -215l94 217l109 -62l-137 -193l234 25v-125l-234 26l141 -189l-108 -64l-99 215l-94 -217l-109 62l137 193z" />
<glyph unicode="+" horiz-adv-x="1360" d="M288 509v124h334v334h124v-334h334v-124h-334v-334h-124v334h-334z" />
<glyph unicode="," horiz-adv-x="453" d="M57 -211l96 442h204l-174 -442h-126z" />
<glyph unicode="-" horiz-adv-x="453" d="M95 429v154h272v-154h-272z" />
<glyph unicode="." horiz-adv-x="453" d="M127 0v215h216v-215h-216z" />
<glyph unicode="/" horiz-adv-x="453" d="M74 -155l203 1566h124l-203 -1566h-124z" />
<glyph unicode="0" d="M106 383v665q0 192 91.5 284.5t281.5 92.5q198 0 286 -88.5t88 -288.5v-665q0 -198 -95.5 -301t-278.5 -103q-179 0 -276 105t-97 299zM289 383q0 -125 46.5 -185t143.5 -60q94 0 142.5 62.5t48.5 182.5v665q0 118 -45 170t-146 52q-106 0 -148 -49t-42 -173v-665z" />
<glyph unicode="1" d="M234 1059v169q80 42 132 80q53 39 117 103h146v-1411h-91h-92v1191l-36 -27q-69 -50 -176 -105z" />
<glyph unicode="2" d="M117 0v86v86q305 357 425 558t120 354q0 86 -48 138t-126 52q-101 0 -139 -44.5t-35 -157.5v-42h-183v42q-11 177 78 265t279 88q175 0 266 -87q91 -86 91 -252q0 -168 -129 -381q-116 -190 -419 -551h561v-154h-741z" />
<glyph unicode="3" d="M105 356v42h181v-42q-2 -113 40.5 -167.5t131.5 -54.5q107 0 158 57.5t51 176.5v78q0 106 -51 165.5t-142 59.5h-54v162h19q118 0 172 48.5t54 154.5v41q0 105 -41 149.5t-138 44.5q-88 0 -133.5 -54.5t-42.5 -154.5v-42h-183v42q-11 174 82.5 268.5t277.5 94.5 q177 0 269 -80.5t92 -235.5v-41q0 -180 -81 -254q-46 -43 -132 -60q93 -17 137 -59q76 -71 76 -276v-78q0 -181 -96.5 -271.5t-290.5 -90.5q-177 0 -269.5 98t-86.5 279z" />
<glyph unicode="4" d="M44 346v73v73l438 919h127h127v-911h162v-154h-162v-346h-183v346h-509zM206 500h347v736z" />
<glyph unicode="5" d="M129 309v42h181v-42q6 -89 43.5 -130.5t113.5 -41.5q116 0 156 61.5t40 239.5v94q0 133 -36.5 185.5t-129.5 52.5q-89 0 -132.5 -47.5t-41.5 -142.5h-187l13 831h660v-159h-493l-7 -449q47 47 78 70q70 51 171 51q160 0 223 -91.5t63 -325.5v-94q0 -239 -80.5 -336.5 t-277.5 -97.5q-195 0 -271.5 71t-85.5 259z" />
<glyph unicode="6" d="M120 437v169q1 508 75 664q73 155 313 155q192 0 276.5 -89.5t75.5 -284.5v-29h-181v29q0 108 -43.5 164t-127.5 56q-128 0 -167 -108q-34 -93 -37 -366q121 92 264 92q161 0 230 -96.5t69 -322.5v-54q0 -219 -93.5 -328t-280.5 -109q-194 0 -283.5 110t-89.5 348z M303 412q0 -159 40 -216.5t150 -57.5q103 0 147 63t44 211v54q0 140 -45 202t-146 62q-93 0 -141.5 -67.5t-48.5 -196.5v-54z" />
<glyph unicode="7" d="M140 1257v154h705v-77v-77l-418 -1257h-217l472 1257h-542z" />
<glyph unicode="8" d="M103 358q0 217 84 306q52 55 150 75q-80 22 -128 68q-84 82 -84 260v-28q0 185 91.5 285.5t260.5 100.5q184 0 268.5 -92.5t84.5 -293.5v28q0 -178 -77 -261q-45 -48 -119 -68q92 -20 136 -67q76 -81 76 -313v30q0 -192 -98.5 -300.5t-273.5 -108.5q-189 0 -280 100 t-91 309v-30zM286 388v30q0 -162 39.5 -221t148.5 -59q102 0 145.5 64.5t43.5 215.5v-30q0 157 -40 214q-39 57 -149 57q-102 0 -145 -62.5t-43 -208.5zM308 1034v28q0 -125 42 -185q41 -60 127 -60q87 0 128.5 60t41.5 185v-28q0 126 -40 181.5t-130 55.5 q-84 0 -126.5 -59.5t-42.5 -177.5z" />
<glyph unicode="9" d="M104 934v54q0 219 91.5 328t275.5 109q225 0 303.5 -120t77.5 -465v-169q-1 -408 -81 -550q-79 -142 -308 -142q-192 0 -276.5 89.5t-75.5 284.5v29h181v-29q0 -108 43.5 -164t127.5 -56q141 0 177 96q32 86 35 386q-121 -101 -256 -100q-170 0 -242.5 96.5t-72.5 322.5z M287 938q0 -140 45 -202t146 -62q94 0 142.5 67.5t48.5 196.5v54q0 159 -40 216.5t-151 57.5q-103 0 -147 -63t-44 -211v-54z" />
<glyph unicode=":" horiz-adv-x="453" d="M127 0v215h216v-215h-216zM127 738v215h216v-215h-216z" />
<glyph unicode=";" horiz-adv-x="453" d="M57 -211l96 443h204l-174 -443h-126zM131 738v215h216v-215h-216z" />
<glyph unicode="&#x3c;" horiz-adv-x="2039" d="M410 542v72v72l1225 549v-145l-1066 -475l1066 -479v-145z" />
<glyph unicode="=" horiz-adv-x="1360" d="M288 393v125h792v-125h-792zM288 612v125h792v-125h-792z" />
<glyph unicode="&#x3e;" horiz-adv-x="2039" d="M410 -9v145l1066 479l-1066 475v145l1225 -549v-72v-72z" />
<glyph unicode="?" horiz-adv-x="868" d="M137 1030v42q-11 185 65 270.5t252 85.5q181 0 249 -72t68 -262q0 -123 -37 -197t-170 -215q-32 -34 -41.5 -92.5t-9.5 -226.5h-158q0 236 11 288t80 135q85 103 108.5 158t23.5 150q0 105 -27 145q-26 40 -97 40q-69 0 -98 -48.5t-26 -158.5v-42h-193zM326 0v215h216 v-215h-216z" />
<glyph unicode="@" horiz-adv-x="1360" d="M123 298v515q1 334 130 476.5t431 142.5q303 0 432 -136.5t128 -457.5v-397q0 -166 -51.5 -236.5t-172.5 -70.5q-125 0 -175 167q-12 -55 -35 -89q-52 -78 -179 -78q-119 0 -173.5 75t-54.5 237v267q0 148 52.5 222t158.5 74q123 1 182 -76v55h172v-610q0 -52 14.5 -74 t49.5 -22q26 0 37 36.5t11 122.5v397q0 242 -91 345.5t-305 103.5t-305.5 -107t-91.5 -359v-516q0 -222 90.5 -316.5t302.5 -94.5q80 0 162.5 14.5t121.5 35.5v-139q-47 -25 -137 -42t-174 -17q-287 0 -409 127t-121 425zM572 444q0 -95 23.5 -131t85.5 -36q64 0 88 44 t24 160v181q0 116 -24 160t-87 44q-54 0 -82 -39.5t-28 -115.5v-267z" />
<glyph unicode="A" horiz-adv-x="1057" d="M81 0l323 1411h128h129l322 -1411h-102h-103l-65 320h-378l-66 -320h-94h-94zM369 479h313l-156 758z" />
<glyph unicode="B" horiz-adv-x="1020" d="M140 0v1411h96h247q213 0 315.5 -86.5t102.5 -267.5v-7q0 -180 -92 -260q-57 -49 -160 -68q129 -17 191 -67q97 -76 97 -279v-7q0 -199 -96.5 -284t-323.5 -85h-281h-96zM333 159h184q120 0 173.5 57t53.5 186v7q0 128 -55.5 180.5t-191.5 52.5h-164v-483zM333 801h164 q112 0 161.5 51t49.5 166v7q0 115 -55 170.5t-170 55.5h-150v-450z" />
<glyph unicode="C" horiz-adv-x="1020" d="M140 369v628q0 228 93.5 329.5t304.5 101.5q200 0 286 -92q77 -80 76 -245l-1 -47v-42h-193v42v25q0 107 -32 151q-36 48 -134 49q-110 0 -158.5 -56t-48.5 -183v-628q0 -148 41 -204t150 -56q100 0 142 64q41 62 40 198v13v42h193v-42q1 -17 0 -34q0 -204 -80 -298 q-87 -102 -289 -102q-199 0 -294.5 94.5t-95.5 291.5z" />
<glyph unicode="D" horiz-adv-x="1057" d="M138 0v1411h96h248q244 0 352.5 -98t108.5 -319v-550q0 -235 -83 -339.5t-271 -104.5h-355h-96zM331 159h196q125 0 174 62t49 220v550q0 146 -53.5 203.5t-190.5 57.5h-175v-1093z" />
<glyph unicode="E" horiz-adv-x="868" d="M133 0v1411h632v-79v-80h-439v-447h413v-79v-80h-413v-487h452v-79v-80h-645z" />
<glyph unicode="F" horiz-adv-x="831" d="M135 0v1411h616v-79v-80h-423v-447h404v-79v-80h-404v-646h-96h-97z" />
<glyph unicode="G" horiz-adv-x="1057" d="M131 459v520q0 238 97 343.5t316 105.5q205 0 298 -89q91 -86 91 -269v-12v-42h-193v42v9q0 105 -44 153q-47 49 -152 49q-117 0 -168.5 -69t-51.5 -224v-520q0 -179 47.5 -246.5t172.5 -67.5q110 1 196 33v414h-216v159h409v-699q-140 -65 -389 -66q-235 0 -324 102.5 t-89 373.5z" />
<glyph unicode="H" horiz-adv-x="1057" d="M133 0v1411h96h97v-606h408v606h96h97v-1411h-96h-97v646h-408v-646h-96h-97z" />
<glyph unicode="I" horiz-adv-x="453" d="M130 0v1411h96h97v-1411h-96h-97z" />
<glyph unicode="J" horiz-adv-x="868" d="M48 364v42h193v-42v-11q0 -103 37 -155q38 -56 117 -56q88 0 122.5 58.5t34.5 208.5v1002h96h97v-1036q0 -204 -84 -298t-265 -94q-187 0 -270 91q-78 86 -78 264v26z" />
<glyph unicode="K" horiz-adv-x="1020" d="M148 0v1411h96h97v-650l407 650h106h107l-420 -633l420 -778h-114h-114l-392 762v-762h-96h-97z" />
<glyph unicode="L" horiz-adv-x="793" d="M134 0v1411h96h97v-1252h410v-79v-80h-603z" />
<glyph unicode="M" horiz-adv-x="1397" d="M135 0v1411h157h157l256 -1137l247 1137h157h157v-1411h-89h-90v1225l-289 -1225h-97h-97l-290 1229v-1229h-89h-90z" />
<glyph unicode="N" horiz-adv-x="1095" d="M128 0v1411h152h153l364 -1220v1220h89h90v-1411h-151h-152l-361 1210v-1210h-92h-92z" />
<glyph unicode="O" horiz-adv-x="1057" d="M134 459v520q0 238 94 343.5t307 105.5q217 0 309 -105t92 -351v-592q0 -210 -94 -303.5t-307 -93.5q-229 0 -315 102.5t-86 373.5zM327 456q0 -179 44.5 -246.5t163.5 -67.5q110 0 159 65.5t49 212.5v592q0 146 -44.5 201.5t-163.5 55.5q-110 0 -159 -69t-49 -224v-520z " />
<glyph unicode="P" d="M135 0v1411h96h222q243 0 335 -84.5t92 -308.5v15q0 -216 -100.5 -312t-326.5 -96h-125v-625h-96h-97zM328 784h125q136 0 185 51.5t49 193.5v-15q0 136 -50.5 187t-183.5 51h-125v-468z" />
<glyph unicode="Q" horiz-adv-x="1057" d="M129 455v520q0 225 100 337t301 112q209 0 305 -97t96 -308v-520q1 -223 -108 -342l207 9v-166h-200l-341 -21q-205 0 -282.5 102.5t-77.5 373.5zM322 452q0 -179 44.5 -246.5t163.5 -67.5q116 0 162 69t46 245v520q0 167 -44.5 230t-163.5 63q-110 0 -159 -69t-49 -224 v-520z" />
<glyph unicode="R" horiz-adv-x="1020" d="M135 0v1411h97h350q175 0 259 -86t84 -266v14q0 -193 -95 -279q-63 -58 -182 -77q128 -9 178 -60q59 -61 62 -236q2 -127 12 -213l4 -33q7 -55 14.5 -94t19.5 -80h-101h-101q-14 65 -20.5 101t-8.5 59l-3 30q-9 88 -11 195q-2 137 -51.5 195t-162.5 58h-150v-639h-97h-97 zM329 798h153q145 0 197.5 55.5t52.5 209.5v-14q0 116 -53.5 159.5t-196.5 43.5h-153v-454z" />
<glyph unicode="S" horiz-adv-x="982" d="M97 393l1 38v42h196v-42v-15q0 -153 40 -212q42 -62 159 -62t169 53.5t52 174.5q0 92 -47 144q-47 51 -209 136q-189 100 -263 189q-73 88 -73 214q0 188 99 281.5t298 93.5q208 0 290 -86q76 -80 77 -266l-1 -32v-42h-194v42q0 122 -39.5 173.5t-132.5 51.5 q-104 0 -150.5 -47t-46.5 -152q0 -85 41 -131t183 -121q220 -116 290 -200q69 -84 69 -231q0 -202 -103 -303t-309 -101q-221 0 -312 103q-84 95 -84 307z" />
<glyph unicode="T" horiz-adv-x="982" d="M74 1252v79v80h843v-79v-80h-325v-1252h-96h-97v1252h-325z" />
<glyph unicode="U" horiz-adv-x="1057" d="M138 358v1053h96h97v-1000q0 -141 48.5 -206t153.5 -65q107 0 154 63.5t47 207.5v1000h96h97v-1053q0 -188 -98.5 -281.5t-295.5 -93.5q-198 0 -296.5 93.5t-98.5 281.5z" />
<glyph unicode="V" d="M55 1411h102h102l224 -1202l216 1202h94h94l-297 -1411h-118h-119z" />
<glyph unicode="W" horiz-adv-x="1397" d="M73 1411h94h94l165 -1129l167 1129h116h116l164 -1116l169 1116h93h93l-241 -1411h-111h-111l-173 1164l-175 -1164h-111h-111z" />
<glyph unicode="X" horiz-adv-x="1057" d="M70 0l354 746l-313 665h105h106l216 -511l226 511h98h99l-317 -678l333 -733h-103h-104l-238 560l-257 -560h-102h-103z" />
<glyph unicode="Y" d="M64 1411h109h109l212 -625l211 625h99h100l-323 -816v-595h-96h-97v593z" />
<glyph unicode="Z" d="M95 0v103v103l554 999l27 47h-581v79v80h761v-103v-103l-554 -999l-27 -47h581v-79v-80h-761z" />
<glyph unicode="[" horiz-adv-x="453" d="M107 -198v1605h300v-91h-146v-1423h146v-91h-300z" />
<glyph unicode="\" horiz-adv-x="453" d="M74 1411h124l203 -1566h-124z" />
<glyph unicode="]" horiz-adv-x="453" d="M55 -107h147v1423h-147v91h301v-1605h-301v91z" />
<glyph unicode="^" horiz-adv-x="1020" d="M99 993v94q139 102 214 196q76 95 145 253h53h53q69 -158 144 -252q76 -95 216 -197v-94q-232 105 -368 219l-46 41l-44 -40q-136 -114 -367 -220z" />
<glyph unicode="_" horiz-adv-x="1020" d="M0 -407h1020v-105h-1020v105z" />
<glyph unicode="`" d="M257 1404h218l115 -309h-146z" />
<glyph unicode="a" horiz-adv-x="831" d="M98 255q0 195 95 271.5t336 76.5h23v117q0 70 -31.5 107.5t-90.5 37.5q-62 0 -95.5 -42t-33.5 -120h-181v13q0 132 77 208q81 80 230 79q160 0 234 -72t74 -227v-704h-183v102q-6 -17 -17 -33q-59 -90 -209 -90q-112 0 -170 71t-58 207v-2zM283 262v2q0 -79 26 -113 t86 -34q81 0 121 66q36 60 36 170v23v91h-40q-112 0 -170.5 -52.5t-58.5 -152.5z" />
<glyph unicode="b" horiz-adv-x="831" d="M101 0v1411h91h92v-503l3 5q57 90 199 90q132 0 193 -77t61 -243v-364q0 -187 -57.5 -263.5t-197.5 -76.5q-132 0 -193 96l-8 13v-88h-183zM284 376q0 -133 35 -196t109 -63q69 0 99.5 38t30.5 123v395q0 96 -34 143t-103 47q-79 1 -109 -55q-28 -52 -28 -186v-18v-228z " />
<glyph unicode="c" horiz-adv-x="793" d="M102 311v327q0 197 72 281t242 84q153 0 222 -71q64 -67 64 -204v-21v-29h-183v29q1 11 1 21q0 66 -22 98q-26 38 -84 38q-72 0 -100.5 -41.5t-28.5 -146.5v-358q0 -115 27 -158t99 -43q65 0 95 40q26 35 25 104v19v29h183v-29v-19q0 -139 -68 -209q-73 -74 -230 -73 q-163 0 -238.5 79.5t-75.5 252.5z" />
<glyph unicode="d" horiz-adv-x="831" d="M99 313v313q0 192 64 284.5t197 92.5q122 0 192 -87v495h91h92v-1411h-91h-92v86q-80 -107 -192 -107q-136 0 -198.5 80t-62.5 254zM284 305q0 -112 25 -149t100 -37q82 0 112.5 57.5t30.5 209.5v289q1 12 1 23q1 76 -29 116q-34 46 -106 46t-103 -46t-31 -155v-354z" />
<glyph unicode="e" horiz-adv-x="793" d="M83 358v286q0 183 78.5 271t242.5 88q167 0 244.5 -86t77.5 -273v-217h-460v-72q0 -145 27 -191.5t111 -46.5q72 1 106 37q31 33 30 100v12v29h183v-29q1 -12 0 -23q1 -127 -71 -193q-78 -70 -248 -71q-177 0 -249 85.5t-72 293.5zM266 563h277v78q0 128 -30 176t-109 48 q-73 0 -105.5 -52.5t-32.5 -171.5v-78z" />
<glyph unicode="f" horiz-adv-x="604" d="M73 847v135h130v184q0 137 49.5 197.5t160.5 60.5q71 0 132 -11v-129l-49 2q-56 0 -83 -29.5t-27 -90.5v-184h159v-135h-159v-847h-91h-92v847h-130z" />
<glyph unicode="g" horiz-adv-x="831" d="M94 347v367q0 145 63 217t189 72h3q124 0 201 -97v76h183v-1047q0 -162 -80 -242.5t-240 -80.5q-154 0 -226 70q-67 66 -67 198v19v29h155v-29v-19q0 -66 25 -95q28 -33 102 -33q83 0 115.5 35.5t32.5 125.5v188l-9 -13q-62 -88 -196 -88q-131 0 -191 83.5t-60 263.5z M276 340q0 -114 29 -157t107 -43q79 0 108.5 54t29.5 197v221q0 143 -29.5 197t-107.5 54q-67 0 -102 -47.5t-35 -138.5v-337z" />
<glyph unicode="h" horiz-adv-x="831" d="M108 0v1411h91h92v-517l4 4q95 105 211 105q115 0 177 -62t62 -177v-764h-89h-90v707q0 77 -32 117.5t-94 40.5q-76 0 -112.5 -52.5t-36.5 -161.5v-651h-91h-92z" />
<glyph unicode="i" horiz-adv-x="378" d="M97 1226v183h192v-183h-192zM102 0v982h91h92v-982h-91h-92z" />
<glyph unicode="j" horiz-adv-x="378" d="M-7 -248l38 -2q49 0 62.5 23.5t13.5 107.5v1101h91h92v-1143q0 -123 -45.5 -175t-151.5 -52q-56 0 -100 13v127zM103 1226v183h192v-183h-192z" />
<glyph unicode="k" horiz-adv-x="831" d="M122 0v1411h91h92v-1411h-91h-92zM305 540l259 442h96h97l-257 -442l277 -540h-95h-95z" />
<glyph unicode="l" horiz-adv-x="378" d="M104 0v1411h91h92v-1411h-91h-92z" />
<glyph unicode="m" horiz-adv-x="1246" d="M83 0v982h91h92v-89l5 5q95 105 212 105q106 0 173 -67q29 -29 45 -64l10 12q112 119 219 119q120 0 184.5 -64.5t64.5 -184.5v-754h-89h-90v706q0 78 -32.5 118.5t-94.5 40.5q-77 0 -113.5 -52.5t-36.5 -161.5v-651h-91h-92v707q0 77 -32 117.5t-94 40.5 q-75 0 -111.5 -52.5t-36.5 -161.5v-651h-91h-92z" />
<glyph unicode="n" horiz-adv-x="831" d="M102 0v982h91h92v-82l4 4q92 98 217 98q113 0 174.5 -61.5t61.5 -174.5v-766h-89h-90v704q0 78 -32.5 119t-95.5 41q-77 0 -113.5 -52t-36.5 -161v-651h-91h-92z" />
<glyph unicode="o" horiz-adv-x="831" d="M101 358v286q0 172 82.5 265.5t235.5 93.5q165 0 241.5 -86t76.5 -273v-286q0 -201 -74.5 -290t-243.5 -89q-165 0 -241.5 91t-76.5 288zM284 347q0 -131 29 -180.5t106 -49.5q72 0 103.5 52.5t31.5 170.5v286q0 124 -32.5 181.5t-102.5 57.5q-72 0 -103.5 -54.5 t-31.5 -177.5v-286z" />
<glyph unicode="p" horiz-adv-x="831" d="M108 -367v1349h91h92v-108l1 1q94 128 216 128q120 0 179.5 -80t59.5 -240v-364q0 -177 -61 -258.5t-193 -81.5q-131 0 -192 78l-10 13v-437h-91h-92zM291 304q0 -96 35 -141.5t109 -45.5q64 0 97 54.5t33 158.5v364q0 85 -32 127t-97 42q-74 0 -110 -56 q-35 -53 -35 -157v-11v-335z" />
<glyph unicode="q" horiz-adv-x="831" d="M95 262v477q0 124 66.5 194t184.5 70q114 0 203 -96v75h183v-1349h-91h-92v430q-85 -83 -204 -84q-120 0 -185 73.5t-65 209.5zM273 326q0 -108 33 -157.5t104 -49.5q78 0 108.5 49t30.5 174v335q0 93 -34.5 139.5t-103.5 46.5q-73 0 -105.5 -45.5t-32.5 -147.5v-344z " />
<glyph unicode="r" horiz-adv-x="566" d="M108 0v982h91h92v-118l25 35q83 102 203 104v-183q-127 0 -177.5 -61.5t-50.5 -217.5v-541h-91h-92z" />
<glyph unicode="s" horiz-adv-x="755" d="M75 254v17v29h180v-29v-17q-1 -64 27 -98q32 -38 98 -39q63 0 94 30t31 90q0 53 -35 95t-139 115q-137 96 -183 157t-46 145q0 122 74 188t210 66q152 0 220 -66q65 -62 64 -192v-19v-29h-180v29v15q0 61 -22 91q-25 34 -82 33q-52 0 -78 -24.5t-26 -73.5q0 -50 26 -82 q26 -31 121 -98q153 -108 205 -172q51 -64 51 -147q0 -139 -79.5 -214t-225.5 -75q-157 0 -233 73q-73 68 -72 202z" />
<glyph unicode="t" horiz-adv-x="604" d="M68 847v135h128v177l183 76v-253h146v-135h-146v-631q0 -55 32 -77t114 -22v-124q-65 -14 -109 -14h-6q-118 0 -166 47t-48 161v660h-128z" />
<glyph unicode="u" horiz-adv-x="831" d="M99 218v764h91h92v-727q0 -68 28 -103t82 -35q82 0 121.5 52.5t39.5 161.5v651h91h92v-982h-91h-92v82l-1 -1q-92 -102 -214 -102q-115 0 -177 62t-62 177z" />
<glyph unicode="v" horiz-adv-x="793" d="M65 982h94h94l155 -795l151 795h92h92l-222 -982h-116h-117z" />
<glyph unicode="w" horiz-adv-x="1322" d="M56 982h92h93l153 -851l146 851h125h126l161 -856l152 856h82h83l-198 -982h-126h-127l-160 823l-146 -823h-128h-128z" />
<glyph unicode="x" horiz-adv-x="793" d="M59 0l251 503l-221 479h97h97l130 -321l122 321h88h88l-217 -493l221 -489h-93h-94l-135 349l-155 -349h-89h-90z" />
<glyph unicode="y" horiz-adv-x="831" d="M67 982h93h93l169 -728l177 728h87h87l-368 -1345h-85h-85l103 343z" />
<glyph unicode="z" horiz-adv-x="680" d="M75 0v77v77l360 690l1 2h-333v68v68h508v-69v-69l-351 -690l-9 -18h365v-68v-68h-541z" />
<glyph unicode="{" horiz-adv-x="906" d="M197 465v157q97 22 142 94t45 207v266q0 214 81 294.5t296 80.5v-155q-127 0 -160 -37.5t-33 -182.5v-266q0 -201 -89 -314q-26 -33 -63 -61q38 -31 64 -67q89 -120 89 -310v-266q0 -136 36.5 -178t155.5 -42v-155q-234 0 -306 71t-72 304v266q0 134 -38 194t-148 100z " />
<glyph unicode="|" horiz-adv-x="1020" d="M458 -512v2048h105v-2048h-105z" />
<glyph unicode="}" horiz-adv-x="906" d="M145 -315q119 0 155.5 42t36.5 178v266q0 190 89 310q26 36 64 67q-37 28 -63 61q-89 113 -89 314v266q0 145 -33 182.5t-160 37.5v155q215 0 296 -80.5t81 -294.5v-266q0 -135 45 -207t142 -94v-157q-110 -40 -148 -100t-38 -194v-266q0 -233 -72 -304t-306 -71v155z " />
<glyph unicode="~" horiz-adv-x="2039" d="M414 500q93 133 166 187t158 54q53 0 127.5 -13.5t204.5 -46.5q161 -41 235 -58t95 -17q74 0 130.5 29t119.5 101l34 -36q-63 -134 -136 -189t-188 -55q-67 0 -141.5 13.5t-190.5 47.5q-137 40 -208 56t-107 16q-76 0 -136 -27.5t-132 -94.5z" />
<glyph unicode="&#xa1;" horiz-adv-x="604" d="M201 -436l38 1053h140l38 -1053h-216zM201 763v215h216v-215h-216z" />
<glyph unicode="&#xa2;" d="M184 513v356q0 163 83 251q54 58 136 77v228h168v-221q102 -13 154 -67q66 -66 65 -204v-20v-29h-183v29q4 82 -22 119.5t-85 37.5q-70 0 -101.5 -43t-31.5 -139v-356q0 -112 26.5 -154t96.5 -42t95.5 36.5t21.5 128.5v29h183v-29q5 -166 -60 -231q-48 -49 -159 -62v-258 h-168v260q-104 14 -152 61q-67 66 -67 242z" />
<glyph unicode="&#xa3;" d="M181 704v148h82v294q0 149 62.5 215.5t204.5 66.5q149 0 213 -82t53 -260v-42h-183v42q3 105 -14.5 144.5t-68.5 39.5q-45 0 -64.5 -29t-19.5 -95v-294h168v-148h-168v-550h344v-77v-77h-585v154h58v550h-82z" />
<glyph unicode="&#xa4;" d="M-8 317l137 137q-90 117 -91 274q0 159 92 275l-138 138l79 79l138 -138q117 93 274 92q157 0 274 -92l138 138l79 -79l-138 -138q93 -116 93 -275q0 -156 -92 -274l137 -137l-79 -79l-137 137q-116 -91 -275 -92q-158 0 -275 92l-137 -137zM158 728q0 -137 94 -231 t231 -94t231.5 94t94.5 231t-94.5 231.5t-231.5 94.5t-231 -94.5t-94 -231.5z" />
<glyph unicode="&#xa5;" d="M91 1411h94h95l208 -624l208 624h89h89l-294 -808v-154h216v-108h-216v-104h216v-108h-216v-129h-96h-97v129h-217v108h217v104h-217v108h217v136z" />
<glyph unicode="&#xa6;" horiz-adv-x="1020" d="M458 458h105v-919h-105v919zM458 564v919h105v-919h-105z" />
<glyph unicode="&#xa7;" d="M166 715q0 115 97 180q45 30 107 47q-56 36 -88 69q-63 66 -63 157q0 127 80 191q79 63 238 63q38 0 79.5 -5.5t92.5 -16.5v-132q-64 12 -101 16.5t-71 4.5q-67 0 -107.5 -32.5t-40.5 -86.5q0 -48 42.5 -91.5t130.5 -84.5q131 -62 183 -116.5t52 -129.5q0 -113 -87 -182 q-45 -35 -107 -53q81 -44 120 -84q62 -64 62 -160q0 -145 -92.5 -217.5t-277.5 -72.5q-60 0 -107.5 6t-91.5 20v127q43 -11 85.5 -15.5t113.5 -4.5q90 0 145 42.5t55 111.5q0 47 -41.5 89t-126.5 80q-156 71 -218.5 133t-62.5 147zM336 731q0 -52 42 -95q36 -36 104 -68 l-1 1q51 0 98.5 47t47.5 98q0 50 -30.5 88.5t-92.5 67.5l-17 8q-47 -11 -90 -44q-61 -47 -61 -103z" />
<glyph unicode="&#xa8;" d="M215 1159v182h194v-182h-194zM534 1159v182h194v-182h-194z" />
<glyph unicode="&#xa9;" horiz-adv-x="1020" d="M63 1051q0 201 138.5 339.5t338.5 138.5q201 0 339.5 -138.5t138.5 -339.5q0 -200 -138.5 -338.5t-339.5 -138.5q-200 0 -338.5 138.5t-138.5 338.5zM128 1051q0 -173 119.5 -292.5t292.5 -119.5t293 119.5t120 292.5t-120 293t-293 120t-292.5 -120t-119.5 -293z M311 1060q0 116 75.5 195.5t184.5 79.5q58 0 114.5 -22t79.5 -54l-58 -62q-19 26 -58.5 44.5t-77.5 18.5q-78 0 -131.5 -58t-53.5 -142t54.5 -141.5t133.5 -57.5q37 0 77 19.5t61 47.5l58 -62q-24 -34 -81 -57t-115 -23q-110 0 -186.5 79.5t-76.5 194.5z" />
<glyph unicode="&#xaa;" horiz-adv-x="566" d="M54 964q0 127 57.5 176.5t203.5 49.5h53v56q0 39 -16 60.5t-46 21.5q-37 0 -57.5 -22.5t-20.5 -64.5h-158q-3 86 56.5 135t168.5 49q118 0 172 -45.5t54 -143.5v-446h-153v75l-10 -14q-49 -68 -142 -68q-84 0 -123 43.5t-39 137.5zM213 985q0 -61 13 -82t51 -21 q47 0 70 41.5t21 120.5v57h-42q-55 0 -84 -29.5t-29 -86.5z" />
<glyph unicode="&#xab;" horiz-adv-x="906" d="M110 495l223 359h154l-206 -359l206 -360h-149zM432 495l223 359h154l-206 -359l206 -360h-149z" />
<glyph unicode="&#xac;" horiz-adv-x="1360" d="M288 669v125h792v-458h-125v333h-667z" />
<glyph unicode="&#xad;" horiz-adv-x="453" d="M95 429v154h272v-154h-272z" />
<glyph unicode="&#xae;" horiz-adv-x="1020" d="M63 1046q0 201 138.5 339.5t338.5 138.5q201 0 339.5 -138.5t138.5 -339.5q0 -200 -138.5 -338.5t-339.5 -138.5q-200 0 -338.5 138.5t-138.5 338.5zM128 1046q0 -173 119.5 -292.5t292.5 -119.5t293 119.5t120 292.5t-120 293t-293 120t-292.5 -120t-119.5 -293z M373 807v506h187q62 0 104.5 -42.5t42.5 -104.5t-43 -105q-20 -20 -46 -31l89 -223h-91l-84 212h-84v-212h-75zM448 1094h112q30 0 51 21t21 51t-21 51t-51 21h-112v-72v-72z" />
<glyph unicode="&#xaf;" horiz-adv-x="1020" d="M0 1534v106h1020v-106h-1020z" />
<glyph unicode="&#xb0;" d="M172 1109q0 150 80.5 234.5t223.5 84.5t223.5 -84.5t80.5 -234.5t-80.5 -234.5t-223.5 -84.5t-223.5 84.5t-80.5 234.5zM312 1109q0 -96 43.5 -150.5t120.5 -54.5t120.5 54.5t43.5 150.5t-43.5 150.5t-120.5 54.5t-120.5 -54.5t-43.5 -150.5z" />
<glyph unicode="&#xb1;" horiz-adv-x="1360" d="M288 -13v125h792v-125h-792zM288 509v124h334v314h124v-314h334v-124h-334v-314h-124v314h-334z" />
<glyph unicode="&#xb2;" horiz-adv-x="566" d="M72 677v59v59q162 183 226 279q63 96 63 157q0 41 -19 65.5t-51 24.5q-37 0 -54.5 -21t-15.5 -65v-22h-141v22q-6 95 43.5 142.5t154.5 47.5q110 0 167 -47q57 -46 57 -136q0 -109 -60 -201q-50 -76 -220 -256h287v-108h-437z" />
<glyph unicode="&#xb3;" horiz-adv-x="566" d="M75 847v22h140v-22q-1 -40 14.5 -59.5t47.5 -19.5q40 0 59.5 29.5t19.5 91.5q0 55 -19.5 86t-53.5 31h-53v106h8q61 0 89 23t28 73v18q0 50 -15 71.5t-50 21.5q-30 0 -46 -16t-15 -46v-22h-141v22q-5 89 42.5 128.5t160.5 39.5q100 0 152.5 -44.5t52.5 -129.5v-18 q0 -99 -46 -140q-28 -24 -81 -34q57 -10 84 -35q43 -40 43 -156q0 -103 -54.5 -154t-164.5 -51q-108 0 -156.5 44t-45.5 140z" />
<glyph unicode="&#xb4;" d="M362 1095l117 309h216l-187 -309h-146z" />
<glyph unicode="&#xb5;" horiz-adv-x="1133" d="M-125 -337q83 200 135 338t74 215l222 764h200l-190 -635q-29 -99 14.5 -162.5t141.5 -63.5q105 0 187.5 105t143.5 316l128 440h190l-153 -529q-30 -103 -50 -234t-18 -217h-185q-1 78 7 172l-35 -53q-103 -140 -228 -140q-110 0 -165 88q-22 38 -31 80l-178 -484h-210z " />
<glyph unicode="&#xb6;" d="M84 1045q0 216 161.5 348.5t425.5 132.5h260v-80h-138v-1772h-80v1772h-98v-1772h-80v892q-215 39 -333 163t-118 316z" />
<glyph unicode="&#xb7;" horiz-adv-x="453" d="M127 621v215h216v-215h-216z" />
<glyph unicode="&#xb8;" d="M289 -366l157 269h145l-95 -269h-207z" />
<glyph unicode="&#xb9;" horiz-adv-x="566" d="M118 1170v135q50 24 79 49t61 71h135v-748h-70h-70v593l-22 -23q-41 -39 -113 -77z" />
<glyph unicode="&#xba;" horiz-adv-x="566" d="M49 1030v160q0 122 56.5 178.5t178.5 56.5q127 0 181 -54t54 -181v-160q0 -126 -57.5 -186.5t-177.5 -60.5q-129 0 -182 55.5t-53 191.5zM204 1028q0 -86 16.5 -116t63.5 -30q42 0 61 34.5t19 111.5v160q0 76 -18 107t-62 31q-41 0 -60.5 -34t-19.5 -104v-160z" />
<glyph unicode="&#xbb;" horiz-adv-x="906" d="M109 135l206 359l-206 360h149l228 -360l-223 -359h-154zM431 135l206 359l-206 360h149l228 -360l-223 -359h-154z" />
<glyph unicode="&#xbc;" horiz-adv-x="1360" d="M313 -71l554 1524h118l-554 -1524h-118zM205 1170v135q50 24 79 49t61 71h135v-748h-70h-70v593l-22 -23q-41 -39 -113 -77zM693 161v66v67l196 440h102h103v-465h100v-108h-100v-161h-143v161h-258zM803 269h148v353l-137 -328z" />
<glyph unicode="&#xbd;" horiz-adv-x="1360" d="M283 -71l554 1524h118l-554 -1524h-118zM164 1170v135q50 24 79 49t61 71h135v-748h-70h-70v593l-22 -23q-41 -39 -113 -77zM750 0v59v59q162 183 226 279q63 96 63 157q0 41 -19 65.5t-51 24.5q-37 0 -54.5 -21t-15.5 -65v-22h-141v22q-6 95 43.5 142.5t154.5 47.5 q110 0 167 -47q57 -46 57 -136q0 -109 -60 -201q-50 -76 -220 -256h287v-108h-437z" />
<glyph unicode="&#xbe;" horiz-adv-x="1360" d="M373 -71l554 1524h118l-554 -1524h-118zM167 847v22h140v-22q-1 -40 14.5 -59.5t47.5 -19.5q40 0 59.5 29.5t19.5 91.5q0 55 -19.5 86t-53.5 31h-53v106h8q61 0 89 23t28 73v18q0 50 -15 71.5t-50 21.5q-30 0 -46 -16t-15 -46v-22h-141v22q-5 89 42.5 128.5t160.5 39.5 q100 0 152.5 -44.5t52.5 -129.5v-18q0 -99 -46 -140q-28 -24 -81 -34q57 -10 84 -35q43 -40 43 -156q0 -103 -54.5 -154t-164.5 -51q-108 0 -156.5 44t-45.5 140zM749 161v66v67l196 440h102h103v-465h100v-108h-100v-161h-143v161h-258zM859 269h148v353l-137 -328z" />
<glyph unicode="&#xbf;" horiz-adv-x="868" d="M137 -130q0 126 37.5 201.5t172.5 218.5q34 37 44 96.5t10 228.5h158q0 -238 -11.5 -291t-82.5 -138q-87 -105 -111 -161.5t-24 -154.5q0 -108 27 -149q26 -41 97 -41q69 0 98.5 50t25.5 163v42h193v-42q11 -188 -65 -275t-252 -87q-181 0 -249 73t-68 266zM372 765v215 h216v-215h-216z" />
<glyph unicode="&#xc0;" horiz-adv-x="1057" d="M81 0l323 1411h128h129l322 -1411h-102h-103l-65 320h-378l-66 -320h-94h-94zM369 479h313l-156 758zM290 1830h213l110 -309h-142z" />
<glyph unicode="&#xc1;" horiz-adv-x="1057" d="M81 0l323 1411h128h129l322 -1411h-102h-103l-65 320h-378l-66 -320h-94h-94zM369 479h313l-156 758zM425 1521l114 309h210l-182 -309h-142z" />
<glyph unicode="&#xc2;" horiz-adv-x="1057" d="M81 0l323 1411h128h129l322 -1411h-102h-103l-65 320h-378l-66 -320h-94h-94zM369 479h313l-156 758zM299 1521l110 290h123h123l110 -290h-128l-105 206l-105 -206h-128z" />
<glyph unicode="&#xc3;" horiz-adv-x="1057" d="M81 0l323 1411h128h129l322 -1411h-102h-103l-65 320h-378l-66 -320h-94h-94zM369 479h313l-156 758zM296 1549q0 127 23.5 181.5t78.5 54.5q38 0 73 -15.5t96 -59.5q16 -12 32 -20t23 -8q23 0 34.5 27t6.5 66h105q0 -132 -22.5 -184t-79.5 -52q-25 0 -76.5 23t-92.5 52 q-41 28 -55 28q-19 0 -29 -23t-12 -70h-105z" />
<glyph unicode="&#xc4;" horiz-adv-x="1057" d="M81 0l323 1411h128h129l322 -1411h-102h-103l-65 320h-378l-66 -320h-94h-94zM369 479h313l-156 758zM275 1562v193h194v-193h-194zM596 1562v193h194v-193h-194z" />
<glyph unicode="&#xc5;" horiz-adv-x="1057" d="M81 0l323 1411h128h129l322 -1411h-102h-103l-65 320h-378l-66 -320h-94h-94zM369 479h313l-156 758zM346 1710q0 78 54 132t132 54t132 -54t54 -132t-54 -132t-132 -54t-132 54t-54 132zM442 1710q0 -38 26 -64t64 -26t64 26t26 64t-26 64t-64 26t-64 -26t-26 -64z" />
<glyph unicode="&#xc6;" horiz-adv-x="1435" d="M72 0l523 1411h269h469v-79v-80h-450l53 -447h397v-79v-80h-378l58 -487h320v-79v-80h-301h-195l-38 320h-414l-112 -320h-100h-101zM441 479h341l-88 718z" />
<glyph unicode="&#xc7;" horiz-adv-x="1020" d="M140 369v628q0 228 93.5 329.5t304.5 101.5q200 0 286 -92q77 -80 76 -245l-1 -47v-42h-193v42v25q0 107 -32 151q-36 48 -134 49q-110 0 -158.5 -56t-48.5 -183v-628q0 -148 41 -204t150 -56q100 0 142 64q41 62 40 198v13v42h193v-42q1 -17 0 -34q0 -204 -80 -298 q-87 -102 -289 -102q-199 0 -294.5 94.5t-95.5 291.5zM301 -366l157 269h145l-95 -269h-207z" />
<glyph unicode="&#xc8;" horiz-adv-x="868" d="M133 0v1411h632v-79v-80h-439v-447h413v-79v-80h-413v-487h452v-79v-80h-645zM175 1830h213l110 -309h-142z" />
<glyph unicode="&#xc9;" horiz-adv-x="868" d="M133 0v1411h632v-79v-80h-439v-447h413v-79v-80h-413v-487h452v-79v-80h-645zM310 1521l114 309h210l-182 -309h-142z" />
<glyph unicode="&#xca;" horiz-adv-x="868" d="M133 0v1411h632v-79v-80h-439v-447h413v-79v-80h-413v-487h452v-79v-80h-645zM184 1521l110 290h123h123l110 -290h-128l-105 206l-105 -206h-128z" />
<glyph unicode="&#xcb;" horiz-adv-x="868" d="M133 0v1411h632v-79v-80h-439v-447h413v-79v-80h-413v-487h452v-79v-80h-645zM160 1562v193h194v-193h-194zM481 1562v193h194v-193h-194z" />
<glyph unicode="&#xcc;" horiz-adv-x="453" d="M127 0v1411h96h97v-1411h-96h-97zM9 1830h213l110 -309h-142z" />
<glyph unicode="&#xcd;" horiz-adv-x="453" d="M130 0v1411h96h97v-1411h-96h-97zM119 1521l114 309h210l-182 -309h-142z" />
<glyph unicode="&#xce;" horiz-adv-x="453" d="M133 0v1411h96h97v-1411h-96h-97zM-4 1521l110 290h123h123l110 -290h-128l-105 206l-105 -206h-128z" />
<glyph unicode="&#xcf;" horiz-adv-x="453" d="M135 0v1411h96h97v-1411h-96h-97zM-26 1562v193h194v-193h-194zM295 1562v193h194v-193h-194z" />
<glyph unicode="&#xd0;" horiz-adv-x="1057" d="M28 634v143h119v634h93h244q243 0 351 -98t108 -319v-550q0 -235 -83 -339.5t-270 -104.5h-350h-93v634h-119zM334 159h195q124 0 172.5 62t48.5 220v550q0 146 -53 203.5t-189 57.5h-174v-475h183v-143h-183v-475z" />
<glyph unicode="&#xd1;" horiz-adv-x="1095" d="M128 0v1411h152h153l364 -1220v1220h89h90v-1411h-151h-152l-361 1210v-1210h-92h-92zM316 1549q0 127 23.5 181.5t78.5 54.5q38 0 73 -15.5t96 -59.5q16 -12 32 -20t23 -8q23 0 34.5 27t6.5 66h105q0 -132 -22.5 -184t-79.5 -52q-25 0 -76.5 23t-92.5 52q-41 28 -55 28 q-19 0 -29 -23t-12 -70h-105z" />
<glyph unicode="&#xd2;" horiz-adv-x="1057" d="M134 459v520q0 238 94 343.5t307 105.5q217 0 309 -105t92 -351v-592q0 -210 -94 -303.5t-307 -93.5q-229 0 -315 102.5t-86 373.5zM327 456q0 -179 44.5 -246.5t163.5 -67.5q110 0 159 65.5t49 212.5v592q0 146 -44.5 201.5t-163.5 55.5q-110 0 -159 -69t-49 -224v-520z M293 1830h213l110 -309h-142z" />
<glyph unicode="&#xd3;" horiz-adv-x="1057" d="M134 459v520q0 238 94 343.5t307 105.5q217 0 309 -105t92 -351v-592q0 -210 -94 -303.5t-307 -93.5q-229 0 -315 102.5t-86 373.5zM327 456q0 -179 44.5 -246.5t163.5 -67.5q110 0 159 65.5t49 212.5v592q0 146 -44.5 201.5t-163.5 55.5q-110 0 -159 -69t-49 -224v-520z M428 1521l114 309h210l-182 -309h-142z" />
<glyph unicode="&#xd4;" horiz-adv-x="1057" d="M134 459v520q0 238 94 343.5t307 105.5q217 0 309 -105t92 -351v-592q0 -210 -94 -303.5t-307 -93.5q-229 0 -315 102.5t-86 373.5zM327 456q0 -179 44.5 -246.5t163.5 -67.5q110 0 159 65.5t49 212.5v592q0 146 -44.5 201.5t-163.5 55.5q-110 0 -159 -69t-49 -224v-520z M302 1521l110 290h123h123l110 -290h-128l-105 206l-105 -206h-128z" />
<glyph unicode="&#xd5;" horiz-adv-x="1057" d="M134 459v520q0 238 94 343.5t307 105.5q217 0 309 -105t92 -351v-592q0 -210 -94 -303.5t-307 -93.5q-229 0 -315 102.5t-86 373.5zM327 456q0 -179 44.5 -246.5t163.5 -67.5q110 0 159 65.5t49 212.5v592q0 146 -44.5 201.5t-163.5 55.5q-110 0 -159 -69t-49 -224v-520z M299 1549q0 127 23.5 181.5t78.5 54.5q38 0 73 -15.5t96 -59.5q16 -12 32 -20t23 -8q23 0 34.5 27t6.5 66h105q0 -132 -22.5 -184t-79.5 -52q-25 0 -76.5 23t-92.5 52q-41 28 -55 28q-19 0 -29 -23t-12 -70h-105z" />
<glyph unicode="&#xd6;" horiz-adv-x="1057" d="M134 459v520q0 238 94 343.5t307 105.5q217 0 309 -105t92 -351v-592q0 -210 -94 -303.5t-307 -93.5q-229 0 -315 102.5t-86 373.5zM327 456q0 -179 44.5 -246.5t163.5 -67.5q110 0 159 65.5t49 212.5v592q0 146 -44.5 201.5t-163.5 55.5q-110 0 -159 -69t-49 -224v-520z M278 1562v193h194v-193h-194zM599 1562v193h194v-193h-194z" />
<glyph unicode="&#xd7;" horiz-adv-x="1360" d="M310 849l92 92l279 -280l279 279l89 -89l-279 -279l280 -279l-92 -92l-279 280l-279 -279l-89 89l279 279z" />
<glyph unicode="&#xd8;" horiz-adv-x="1057" d="M140 459v520q0 238 94 343.5t307 105.5q103 1 178 -21l46 145l84 -27l-48 -150q33 -19 55 -44q86 -96 86 -352v-520q0 -252 -94 -364t-307 -112q-103 0 -178 21l-46 -145l-84 27l48 152q-32 22 -55 48q-86 102 -86 373zM333 456q0 -122 20 -194l188 588l125 391 q-45 29 -125 28q-110 0 -159 -69t-49 -224v-520zM416 170q47 -27 125 -28q110 0 159 74t49 240v520q0 110 -19 176l-189 -591z" />
<glyph unicode="&#xd9;" horiz-adv-x="1057" d="M138 358v1053h96h97v-1000q0 -141 48.5 -206t153.5 -65q107 0 154 63.5t47 207.5v1000h96h97v-1053q0 -188 -98.5 -281.5t-295.5 -93.5q-198 0 -296.5 93.5t-98.5 281.5zM290 1830h213l110 -309h-142z" />
<glyph unicode="&#xda;" horiz-adv-x="1057" d="M138 358v1053h96h97v-1000q0 -141 48.5 -206t153.5 -65q107 0 154 63.5t47 207.5v1000h96h97v-1053q0 -188 -98.5 -281.5t-295.5 -93.5q-198 0 -296.5 93.5t-98.5 281.5zM425 1521l114 309h210l-182 -309h-142z" />
<glyph unicode="&#xdb;" horiz-adv-x="1057" d="M138 358v1053h96h97v-1000q0 -141 48.5 -206t153.5 -65q107 0 154 63.5t47 207.5v1000h96h97v-1053q0 -188 -98.5 -281.5t-295.5 -93.5q-198 0 -296.5 93.5t-98.5 281.5zM299 1521l110 290h123h123l110 -290h-128l-105 206l-105 -206h-128z" />
<glyph unicode="&#xdc;" horiz-adv-x="1057" d="M138 358v1053h96h97v-1000q0 -141 48.5 -206t153.5 -65q107 0 154 63.5t47 207.5v1000h96h97v-1053q0 -188 -98.5 -281.5t-295.5 -93.5q-198 0 -296.5 93.5t-98.5 281.5zM275 1562v193h194v-193h-194zM596 1562v193h194v-193h-194z" />
<glyph unicode="&#xdd;" d="M64 1411h109h109l212 -625l211 625h99h100l-323 -816v-595h-96h-97v593zM377 1521l114 309h210l-182 -309h-142z" />
<glyph unicode="&#xde;" d="M139 0v1411h96h97v-318h140q231 0 321.5 -82t90.5 -290q0 -222 -91.5 -320t-298.5 -98h-162v-303h-96h-97zM332 462h157q117 0 160 51q42 50 42 189q0 132 -54 182t-198 50h-107v-472z" />
<glyph unicode="&#xdf;" horiz-adv-x="906" d="M110 0v1055q0 188 83 278.5t256 90.5q152 0 231.5 -68t79.5 -199q0 -84 -22 -135t-82 -107q-51 -48 -70 -74t-19 -48q0 -29 24 -60t100 -100q104 -95 144 -169t40 -172q0 -155 -76 -229t-235 -74q-77 0 -117.5 0.5t-49.5 2.5v130q8 -2 128 -2q87 0 129 36.5t42 112.5 q0 51 -27 111t-65 95q-131 119 -172 177.5t-41 126.5q0 52 23.5 94t88.5 102q47 44 64 81t17 94q0 61 -37.5 98.5t-99.5 37.5q-71 0 -112.5 -47t-41.5 -128v-56v-1055h-91h-92z" />
<glyph unicode="&#xe0;" horiz-adv-x="831" d="M98 255q0 195 95 271.5t336 76.5h23v117q0 70 -31.5 107.5t-90.5 37.5q-62 0 -95.5 -42t-33.5 -120h-181v13q0 132 77 208q81 80 230 79q160 0 234 -72t74 -227v-704h-183v102q-6 -17 -17 -33q-59 -90 -209 -90q-112 0 -170 71t-58 207v-2zM283 262v2q0 -79 26 -113 t86 -34q81 0 121 66q36 60 36 170v23v91h-40q-112 0 -170.5 -52.5t-58.5 -152.5zM186 1404h218l115 -309h-146z" />
<glyph unicode="&#xe1;" horiz-adv-x="831" d="M98 255q0 195 95 271.5t336 76.5h23v117q0 70 -31.5 107.5t-90.5 37.5q-62 0 -95.5 -42t-33.5 -120h-181v13q0 132 77 208q81 80 230 79q160 0 234 -72t74 -227v-704h-183v102q-6 -17 -17 -33q-59 -90 -209 -90q-112 0 -170 71t-58 207v-2zM283 262v2q0 -79 26 -113 t86 -34q81 0 121 66q36 60 36 170v23v91h-40q-112 0 -170.5 -52.5t-58.5 -152.5zM326 1095l117 309h216l-187 -309h-146z" />
<glyph unicode="&#xe2;" horiz-adv-x="831" d="M98 255q0 195 95 271.5t336 76.5h23v117q0 70 -31.5 107.5t-90.5 37.5q-62 0 -95.5 -42t-33.5 -120h-181v13q0 132 77 208q81 80 230 79q160 0 234 -72t74 -227v-704h-183v102q-6 -17 -17 -33q-59 -90 -209 -90q-112 0 -170 71t-58 207v-2zM283 262v2q0 -79 26 -113 t86 -34q81 0 121 66q36 60 36 170v23v91h-40q-112 0 -170.5 -52.5t-58.5 -152.5zM205 1095l96 290h135h135l96 -290h-132l-99 206l-99 -206h-132z" />
<glyph unicode="&#xe3;" horiz-adv-x="831" d="M98 255q0 195 95 271.5t336 76.5h23v117q0 70 -31.5 107.5t-90.5 37.5q-62 0 -95.5 -42t-33.5 -120h-181v13q0 132 77 208q81 80 230 79q160 0 234 -72t74 -227v-704h-183v102q-6 -17 -17 -33q-59 -90 -209 -90q-112 0 -170 71t-58 207v-2zM283 262v2q0 -79 26 -113 t86 -34q81 0 121 66q36 60 36 170v23v91h-40q-112 0 -170.5 -52.5t-58.5 -152.5zM199 1142q0 127 23.5 181.5t79.5 54.5q38 0 73 -15.5t96 -59.5q16 -12 32 -20t24 -8q23 0 34.5 27t6.5 66h105q0 -132 -22.5 -184t-80.5 -52q-25 0 -76.5 23t-92.5 52q-17 12 -33.5 20 t-22.5 8q-19 0 -29 -23t-12 -70h-105z" />
<glyph unicode="&#xe4;" horiz-adv-x="831" d="M98 255q0 195 95 271.5t336 76.5h23v117q0 70 -31.5 107.5t-90.5 37.5q-62 0 -95.5 -42t-33.5 -120h-181v13q0 132 77 208q81 80 230 79q160 0 234 -72t74 -227v-704h-183v102q-6 -17 -17 -33q-59 -90 -209 -90q-112 0 -170 71t-58 207v-2zM283 262v2q0 -79 26 -113 t86 -34q81 0 121 66q36 60 36 170v23v91h-40q-112 0 -170.5 -52.5t-58.5 -152.5zM180 1159v182h194v-182h-194zM499 1159v182h194v-182h-194z" />
<glyph unicode="&#xe5;" horiz-adv-x="831" d="M98 255q0 195 95 271.5t336 76.5h23v117q0 70 -31.5 107.5t-90.5 37.5q-62 0 -95.5 -42t-33.5 -120h-181v13q0 132 77 208q81 80 230 79q160 0 234 -72t74 -227v-704h-183v102q-6 -17 -17 -33q-59 -90 -209 -90q-112 0 -170 71t-58 207v-2zM283 262v2q0 -79 26 -113 t86 -34q81 0 121 66q36 60 36 170v23v91h-40q-112 0 -170.5 -52.5t-58.5 -152.5zM251 1283q0 78 53.5 132t131.5 54t132 -54t54 -132t-54 -131.5t-132 -53.5t-131.5 53.5t-53.5 131.5zM347 1283q0 -37 26 -63t63 -26q38 0 64 26t26 63q0 38 -26 64t-64 26q-37 0 -63 -26 t-26 -64z" />
<glyph unicode="&#xe6;" horiz-adv-x="1284" d="M94 249q0 203 87 271t349 68h23v132q0 70 -32 107.5t-92 37.5q-64 0 -98.5 -38t-34.5 -109h-181q-4 134 75 209.5t223 75.5q164 0 232 -97l16 -27l21 29q70 95 216 95q149 0 218 -86t69 -273v-202h-445v-50q0 -168 25.5 -221.5t105.5 -53.5q68 0 99.5 36.5t28.5 112.5v29 h183v-29q7 -146 -63 -216.5t-221 -70.5q-157 0 -222 79q-28 35 -44 91q-19 -49 -42 -83q-67 -87 -235 -87q-128 0 -194.5 69.5t-66.5 202.5v-2zM279 253v2q0 -75 26.5 -106.5t88.5 -31.5q82 0 122.5 62t36.5 181v86h-41q-128 0 -180.5 -43.5t-52.5 -149.5zM740 578h262v100 q0 107 -28 147t-103 40q-69 0 -100 -44t-31 -143v-100z" />
<glyph unicode="&#xe7;" horiz-adv-x="793" d="M102 311v327q0 197 72 281t242 84q153 0 222 -71q64 -67 64 -204v-21v-29h-183v29q1 11 1 21q0 66 -22 98q-26 38 -84 38q-72 0 -100.5 -41.5t-28.5 -146.5v-358q0 -115 27 -158t99 -43q65 0 95 40q26 35 25 104v19v29h183v-29v-19q0 -139 -68 -209q-73 -74 -230 -73 q-163 0 -238.5 79.5t-75.5 252.5zM187 -366l157 269h145l-95 -269h-207z" />
<glyph unicode="&#xe8;" horiz-adv-x="793" d="M83 358v286q0 183 78.5 271t242.5 88q167 0 244.5 -86t77.5 -273v-217h-460v-72q0 -145 27 -191.5t111 -46.5q72 1 106 37q31 33 30 100v12v29h183v-29q1 -12 0 -23q1 -127 -71 -193q-78 -70 -248 -71q-177 0 -249 85.5t-72 293.5zM266 563h277v78q0 128 -30 176t-109 48 q-73 0 -105.5 -52.5t-32.5 -171.5v-78zM167 1404h218l115 -309h-146z" />
<glyph unicode="&#xe9;" horiz-adv-x="793" d="M83 358v286q0 183 78.5 271t242.5 88q167 0 244.5 -86t77.5 -273v-217h-460v-72q0 -145 27 -191.5t111 -46.5q72 1 106 37q31 33 30 100v12v29h183v-29q1 -12 0 -23q1 -127 -71 -193q-78 -70 -248 -71q-177 0 -249 85.5t-72 293.5zM266 563h277v78q0 128 -30 176t-109 48 q-73 0 -105.5 -52.5t-32.5 -171.5v-78zM307 1095l117 309h216l-187 -309h-146z" />
<glyph unicode="&#xea;" horiz-adv-x="793" d="M83 358v286q0 183 78.5 271t242.5 88q167 0 244.5 -86t77.5 -273v-217h-460v-72q0 -145 27 -191.5t111 -46.5q72 1 106 37q31 33 30 100v12v29h183v-29q1 -12 0 -23q1 -127 -71 -193q-78 -70 -248 -71q-177 0 -249 85.5t-72 293.5zM266 563h277v78q0 128 -30 176t-109 48 q-73 0 -105.5 -52.5t-32.5 -171.5v-78zM186 1095l96 290h135h135l96 -290h-132l-99 206l-99 -206h-132z" />
<glyph unicode="&#xeb;" horiz-adv-x="793" d="M83 358v286q0 183 78.5 271t242.5 88q167 0 244.5 -86t77.5 -273v-217h-460v-72q0 -145 27 -191.5t111 -46.5q72 1 106 37q31 33 30 100v12v29h183v-29q1 -12 0 -23q1 -127 -71 -193q-78 -70 -248 -71q-177 0 -249 85.5t-72 293.5zM266 563h277v78q0 128 -30 176t-109 48 q-73 0 -105.5 -52.5t-32.5 -171.5v-78zM161 1159v182h194v-182h-194zM480 1159v182h194v-182h-194z" />
<glyph unicode="&#xec;" horiz-adv-x="453" d="M124 0v982h91h92v-982h-91h-92zM-35 1404h218l115 -309h-146z" />
<glyph unicode="&#xed;" horiz-adv-x="453" d="M135 0v982h91h92v-982h-91h-92zM116 1095l117 309h216l-187 -309h-146z" />
<glyph unicode="&#xee;" horiz-adv-x="453" d="M124 0v982h91h92v-982h-91h-92zM-16 1095l96 290h135h135l96 -290h-132l-99 206l-99 -206h-132z" />
<glyph unicode="&#xef;" horiz-adv-x="453" d="M135 0v982h91h92v-982h-91h-92zM-30 1159v182h194v-182h-194zM289 1159v182h194v-182h-194z" />
<glyph unicode="&#xf0;" horiz-adv-x="831" d="M101 326v347q0 157 74.5 242.5t211.5 85.5q70 0 143 -41l-2 2q-36 112 -88 207l-156 -80l-42 92l143 74q-45 64 -101 118l135 66q59 -53 105 -113l165 85l42 -92l-146 -75q43 -65 73 -137q79 -187 79 -416v-259q0 -249 -71.5 -351t-246.5 -102q-165 0 -241.5 83.5 t-76.5 263.5zM284 324q0 -118 29.5 -162.5t108.5 -44.5q69 0 103.5 51.5t34.5 155.5v347q0 109 -29.5 150.5t-108.5 41.5q-73 0 -105.5 -45t-32.5 -147v-347z" />
<glyph unicode="&#xf1;" horiz-adv-x="831" d="M102 0v982h91h92v-82l4 4q92 98 217 98q113 0 174.5 -61.5t61.5 -174.5v-766h-89h-90v704q0 78 -32.5 119t-95.5 41q-77 0 -113.5 -52t-36.5 -161v-651h-91h-92zM185 1142q0 127 23.5 181.5t79.5 54.5q38 0 73 -15.5t96 -59.5q16 -12 32 -20t24 -8q23 0 34.5 27t6.5 66 h105q0 -132 -22.5 -184t-80.5 -52q-25 0 -76.5 23t-92.5 52q-17 12 -33.5 20t-22.5 8q-19 0 -29 -23t-12 -70h-105z" />
<glyph unicode="&#xf2;" horiz-adv-x="831" d="M101 358v286q0 172 82.5 265.5t235.5 93.5q165 0 241.5 -86t76.5 -273v-286q0 -201 -74.5 -290t-243.5 -89q-165 0 -241.5 91t-76.5 288zM284 347q0 -131 29 -180.5t106 -49.5q72 0 103.5 52.5t31.5 170.5v286q0 124 -32.5 181.5t-102.5 57.5q-72 0 -103.5 -54.5 t-31.5 -177.5v-286zM169 1404h218l115 -309h-146z" />
<glyph unicode="&#xf3;" horiz-adv-x="831" d="M101 358v286q0 172 82.5 265.5t235.5 93.5q165 0 241.5 -86t76.5 -273v-286q0 -201 -74.5 -290t-243.5 -89q-165 0 -241.5 91t-76.5 288zM284 347q0 -131 29 -180.5t106 -49.5q72 0 103.5 52.5t31.5 170.5v286q0 124 -32.5 181.5t-102.5 57.5q-72 0 -103.5 -54.5 t-31.5 -177.5v-286zM309 1095l117 309h216l-187 -309h-146z" />
<glyph unicode="&#xf4;" horiz-adv-x="831" d="M101 358v286q0 172 82.5 265.5t235.5 93.5q165 0 241.5 -86t76.5 -273v-286q0 -201 -74.5 -290t-243.5 -89q-165 0 -241.5 91t-76.5 288zM284 347q0 -131 29 -180.5t106 -49.5q72 0 103.5 52.5t31.5 170.5v286q0 124 -32.5 181.5t-102.5 57.5q-72 0 -103.5 -54.5 t-31.5 -177.5v-286zM188 1095l96 290h135h135l96 -290h-132l-99 206l-99 -206h-132z" />
<glyph unicode="&#xf5;" horiz-adv-x="831" d="M101 358v286q0 172 82.5 265.5t235.5 93.5q165 0 241.5 -86t76.5 -273v-286q0 -201 -74.5 -290t-243.5 -89q-165 0 -241.5 91t-76.5 288zM284 347q0 -131 29 -180.5t106 -49.5q72 0 103.5 52.5t31.5 170.5v286q0 124 -32.5 181.5t-102.5 57.5q-72 0 -103.5 -54.5 t-31.5 -177.5v-286zM182 1142q0 127 23.5 181.5t79.5 54.5q38 0 73 -15.5t96 -59.5q16 -12 32 -20t24 -8q23 0 34.5 27t6.5 66h105q0 -132 -22.5 -184t-80.5 -52q-25 0 -76.5 23t-92.5 52q-17 12 -33.5 20t-22.5 8q-19 0 -29 -23t-12 -70h-105z" />
<glyph unicode="&#xf6;" horiz-adv-x="831" d="M101 358v286q0 172 82.5 265.5t235.5 93.5q165 0 241.5 -86t76.5 -273v-286q0 -201 -74.5 -290t-243.5 -89q-165 0 -241.5 91t-76.5 288zM284 347q0 -131 29 -180.5t106 -49.5q72 0 103.5 52.5t31.5 170.5v286q0 124 -32.5 181.5t-102.5 57.5q-72 0 -103.5 -54.5 t-31.5 -177.5v-286zM163 1159v182h194v-182h-194zM482 1159v182h194v-182h-194z" />
<glyph unicode="&#xf7;" horiz-adv-x="1360" d="M291 506v125h788v-125h-788zM587 340q0 42 28.5 70.5t69.5 28.5t69.5 -28.5t28.5 -70.5q0 -41 -28.5 -69.5t-69.5 -28.5t-69.5 28.5t-28.5 69.5zM587 796q0 42 28.5 70.5t69.5 28.5t69.5 -28.5t28.5 -70.5q0 -41 -28.5 -69.5t-69.5 -28.5t-69.5 28.5t-28.5 69.5z" />
<glyph unicode="&#xf8;" horiz-adv-x="831" d="M101 358v286q0 172 82.5 265.5t235.5 93.5q63 1 113 -13l31 110l66 -19l-32 -113q37 -22 64 -51q76 -86 76 -273v-286q0 -182 -82.5 -280.5t-235.5 -98.5q-56 -1 -102 11l-42 -147l-66 19l43 149q-44 24 -75 59q-76 91 -76 288zM284 355q0 -112 19 -166l116 406l73 255 q-29 15 -73 15q-72 0 -103.5 -52.5t-31.5 -171.5v-286zM356 129q27 -13 63 -12q72 0 103.5 56t31.5 182v286q0 84 -13 135l-122 -428z" />
<glyph unicode="&#xf9;" horiz-adv-x="831" d="M99 218v764h91h92v-727q0 -68 28 -103t82 -35q82 0 121.5 52.5t39.5 161.5v651h91h92v-982h-91h-92v82l-1 -1q-92 -102 -214 -102q-115 0 -177 62t-62 177zM167 1404h218l115 -309h-146z" />
<glyph unicode="&#xfa;" horiz-adv-x="831" d="M99 218v764h91h92v-727q0 -68 28 -103t82 -35q82 0 121.5 52.5t39.5 161.5v651h91h92v-982h-91h-92v82l-1 -1q-92 -102 -214 -102q-115 0 -177 62t-62 177zM307 1095l117 309h216l-187 -309h-146z" />
<glyph unicode="&#xfb;" horiz-adv-x="831" d="M99 218v764h91h92v-727q0 -68 28 -103t82 -35q82 0 121.5 52.5t39.5 161.5v651h91h92v-982h-91h-92v82l-1 -1q-92 -102 -214 -102q-115 0 -177 62t-62 177zM186 1095l96 290h135h135l96 -290h-132l-99 206l-99 -206h-132z" />
<glyph unicode="&#xfc;" horiz-adv-x="831" d="M99 218v764h91h92v-727q0 -68 28 -103t82 -35q82 0 121.5 52.5t39.5 161.5v651h91h92v-982h-91h-92v82l-1 -1q-92 -102 -214 -102q-115 0 -177 62t-62 177zM161 1159v182h194v-182h-194zM480 1159v182h194v-182h-194z" />
<glyph unicode="&#xfd;" horiz-adv-x="831" d="M67 982h93h93l169 -728l177 728h87h87l-368 -1345h-85h-85l103 343zM310 1095l117 309h216l-187 -309h-146z" />
<glyph unicode="&#xfe;" horiz-adv-x="831" d="M108 -367v1778h91h92v-536q95 128 202 128q132 0 193 -77t61 -243v-364q0 -187 -57.5 -263.5t-197.5 -76.5q-132 0 -193 96q-3 8 -8 12v-454h-91h-92zM291 376q0 -133 35 -196t109 -63q69 0 99.5 45t30.5 147v333q0 128 -29 174.5t-108 46.5q-66 0 -102.5 -68.5 t-34.5 -190.5v-228z" />
<glyph unicode="&#xff;" horiz-adv-x="831" d="M67 982h93h93l169 -728l177 728h87h87l-368 -1345h-85h-85l103 343zM164 1159v182h194v-182h-194zM483 1159v182h194v-182h-194z" />
<glyph unicode="&#x131;" horiz-adv-x="453" d="M137 0v982h91h92v-982h-91h-92z" />
<glyph unicode="&#x152;" horiz-adv-x="1397" d="M134 463v512q0 235 98 339q97 104 317 104q111 0 123 -3q6 -2 42 -3t81 -1h101h393v-79v-80h-393v-447h393v-79v-80h-393v-487h393v-79v-80h-378q-69 0 -121.5 -1t-59.5 -3q-11 -3 -181 -3q-237 0 -326 101t-89 369zM327 460q0 -176 47.5 -242t174.5 -66q105 0 154 12 v1087q-50 8 -154 8q-118 0 -170 -67.5t-52 -219.5v-512z" />
<glyph unicode="&#x153;" horiz-adv-x="1284" d="M95 358v286q0 172 75 266q74 93 212 93q150 0 219 -77q30 -32 47 -83q18 42 41 72q70 88 216 88q149 0 218 -86t69 -273v-197h-458v-92q0 -117 36 -177.5t106 -60.5q69 0 101 36.5t29 112.5v29h183v-29q6 -132 -75.5 -209.5t-225.5 -77.5q-148 0 -209 86q-23 33 -37 82 q-17 -46 -47 -80q-75 -88 -213 -88q-149 0 -218 91t-69 288zM278 355q0 -136 29 -187t106 -51q72 0 103.5 56t31.5 182v286q0 128 -29 176t-106 48q-72 0 -103.5 -52.5t-31.5 -171.5v-286zM734 583h275v58q0 128 -29.5 176t-108.5 48q-73 0 -105 -52.5t-32 -171.5v-58z" />
<glyph unicode="&#x178;" d="M64 1411h109h109l212 -625l211 625h99h100l-323 -816v-595h-96h-97v593zM227 1562v193h194v-193h-194zM548 1562v193h194v-193h-194z" />
<glyph unicode="&#x2c6;" d="M245 1095l96 290h135h135l96 -290h-132l-99 206l-99 -206h-132z" />
<glyph unicode="&#x2dc;" d="M265 1142q0 127 23.5 181.5t79.5 54.5q38 0 73 -15.5t96 -59.5q16 -12 32 -20t24 -8q23 0 34.5 27t6.5 66h105q0 -132 -22.5 -184t-80.5 -52q-25 0 -76.5 23t-92.5 52q-17 12 -33.5 20t-22.5 8q-19 0 -29 -23t-12 -70h-105z" />
<glyph unicode="&#x2000;" horiz-adv-x="948" />
<glyph unicode="&#x2001;" horiz-adv-x="1896" />
<glyph unicode="&#x2002;" horiz-adv-x="948" />
<glyph unicode="&#x2003;" horiz-adv-x="1896" />
<glyph unicode="&#x2004;" horiz-adv-x="632" />
<glyph unicode="&#x2005;" horiz-adv-x="474" />
<glyph unicode="&#x2006;" horiz-adv-x="316" />
<glyph unicode="&#x2007;" horiz-adv-x="316" />
<glyph unicode="&#x2008;" horiz-adv-x="237" />
<glyph unicode="&#x2009;" horiz-adv-x="379" />
<glyph unicode="&#x200a;" horiz-adv-x="105" />
<glyph unicode="&#x2010;" horiz-adv-x="453" d="M95 429v154h272v-154h-272z" />
<glyph unicode="&#x2011;" horiz-adv-x="453" d="M95 429v154h272v-154h-272z" />
<glyph unicode="&#x2012;" horiz-adv-x="453" d="M95 429v154h272v-154h-272z" />
<glyph unicode="&#x2013;" d="M57 426v140h838v-140h-838z" />
<glyph unicode="&#x2014;" horiz-adv-x="1360" d="M97 426v140h1168v-140h-1168z" />
<glyph unicode="&#x2018;" horiz-adv-x="453" d="M81 967l174 443h125l-96 -443h-203z" />
<glyph unicode="&#x2019;" horiz-adv-x="453" d="M93 967l96 443h203l-174 -443h-125z" />
<glyph unicode="&#x201a;" horiz-adv-x="453" d="M93 -211l96 442h203l-174 -442h-125z" />
<glyph unicode="&#x201c;" horiz-adv-x="718" d="M81 967l174 443h125l-96 -443h-203zM372 967l174 443h125l-96 -443h-203z" />
<glyph unicode="&#x201d;" horiz-adv-x="718" d="M93 967l96 443h203l-174 -443h-125zM384 967l96 443h203l-174 -443h-125z" />
<glyph unicode="&#x201e;" horiz-adv-x="718" d="M93 -211l96 443h203l-174 -443h-125zM384 -211l96 443h203l-174 -443h-125z" />
<glyph unicode="&#x2022;" horiz-adv-x="1020" d="M140 733q0 155 107.5 262.5t262.5 107.5t262.5 -107.5t107.5 -262.5t-107.5 -262.5t-262.5 -107.5t-262.5 107.5t-107.5 262.5z" />
<glyph unicode="&#x2026;" horiz-adv-x="1360" d="M149 0v182h172v-182h-172zM593 0v182h172v-182h-172zM1038 0v182h172v-182h-172z" />
<glyph unicode="&#x202f;" horiz-adv-x="379" />
<glyph unicode="&#x2039;" horiz-adv-x="491" d="M67 495l223 359h154l-206 -359l206 -360h-149z" />
<glyph unicode="&#x203a;" horiz-adv-x="491" d="M68 135l206 359l-206 360h149l228 -360l-223 -359h-154z" />
<glyph unicode="&#x205f;" horiz-adv-x="474" />
<glyph unicode="&#x20ac;" d="M35 488l28 159h82v110h-110l28 159h82v78q0 228 88.5 329.5t288.5 101.5q188 0 275 -91.5t87 -289.5v-42h-193v42q0 122 -40.5 172t-138.5 50q-92 0 -133 -56t-41 -182v-112h287l-28 -159h-259v-110h241l-28 -159h-213v-89q0 -149 39 -205t143 -56q91 0 131 65.5 t40 213.5v42h193v-42q0 -232 -87 -335t-283 -103q-188 0 -278.5 94.5t-90.5 291.5v123h-110z" />
<glyph unicode="&#x2122;" horiz-adv-x="1246" d="M59 1299v89h393v-89h-152v-518h-89v518h-152zM515 781v607h160l112 -486l112 486h160v-607h-89v559l-129 -559h-108l-129 559v-559h-89z" />
<glyph unicode="&#x2215;" horiz-adv-x="189" d="M-246 -71l554 1524h118l-554 -1524h-118z" />
<glyph unicode="&#xe000;" horiz-adv-x="980" d="M0 980h980v-980h-980v980z" />
<glyph unicode="&#xfb01;" d="M87 847v135h130v184q0 137 49.5 197.5t160.5 60.5q71 0 132 -11v-129l-49 2q-56 0 -83 -29.5t-27 -90.5v-184h159v-135h-159v-847h-91h-92v847h-130zM660 1226v183h192v-183h-192zM665 0v982h91h92v-982h-91h-92z" />
<glyph unicode="&#xfb02;" horiz-adv-x="982" d="M708 0v1411h91h92v-1411h-91h-92zM73 847v135h130v184q0 137 49.5 197.5t160.5 60.5q71 0 132 -11v-129l-49 2q-56 0 -83 -29.5t-27 -90.5v-184h159v-135h-159v-847h-91h-92v847h-130z" />
<glyph unicode="&#xfb03;" horiz-adv-x="1586" d="M1305 1226v183h192v-183h-192zM1310 0v982h91h92v-982h-91h-92zM677 847v135h130v184q0 137 49.5 197.5t160.5 60.5q71 0 132 -11v-129l-49 2q-56 0 -83 -29.5t-27 -90.5v-184h159v-135h-159v-847h-91h-92v847h-130zM73 847v135h130v184q0 137 49.5 197.5t160.5 60.5 q71 0 132 -11v-129l-49 2q-56 0 -83 -29.5t-27 -90.5v-184h159v-135h-159v-847h-91h-92v847h-130z" />
<glyph unicode="&#xfb04;" horiz-adv-x="1586" d="M1312 0v1411h91h92v-1411h-91h-92zM677 847v135h130v184q0 137 49.5 197.5t160.5 60.5q71 0 132 -11v-129l-49 2q-56 0 -83 -29.5t-27 -90.5v-184h159v-135h-159v-847h-91h-92v847h-130zM73 847v135h130v184q0 137 49.5 197.5t160.5 60.5q71 0 132 -11v-129l-49 2 q-56 0 -83 -29.5t-27 -90.5v-184h159v-135h-159v-847h-91h-92v847h-130z" />
<glyph horiz-adv-x="0" d="M-478 1051q0 201 138.5 339.5t338.5 138.5q201 0 339.5 -138.5t138.5 -339.5q0 -200 -138.5 -338.5t-339.5 -138.5q-200 0 -338.5 138.5t-138.5 338.5zM-413 1051q0 -173 119.5 -292.5t292.5 -119.5t293 119.5t120 292.5t-120 293t-293 120t-292.5 -120t-119.5 -293z" />
<glyph horiz-adv-x="0" d="M-244 1060q0 116 75.5 195.5t184.5 79.5q58 0 114.5 -22t79.5 -54l-58 -62q-19 26 -58.5 44.5t-77.5 18.5q-78 0 -131.5 -58t-53.5 -142t54.5 -141.5t133.5 -57.5q37 0 77 19.5t61 47.5l58 -62q-24 -34 -81 -57t-115 -23q-110 0 -186.5 79.5t-76.5 194.5z" />
<glyph horiz-adv-x="0" d="M-478 1046q0 201 138.5 339.5t338.5 138.5q201 0 339.5 -138.5t138.5 -339.5q0 -200 -138.5 -338.5t-339.5 -138.5q-200 0 -338.5 138.5t-138.5 338.5zM-413 1046q0 -173 119.5 -292.5t292.5 -119.5t293 119.5t120 292.5t-120 293t-293 120t-292.5 -120t-119.5 -293z" />
<glyph horiz-adv-x="0" d="M-160 807v506h187q62 0 104.5 -42.5t42.5 -104.5t-43 -105q-20 -20 -46 -31l89 -223h-91l-84 212h-84v-212h-75zM-85 1094h112q30 0 51 21t21 51t-21 51t-51 21h-112v-72v-72z" />
<glyph horiz-adv-x="566" d="M118 1170v135q50 24 79 49t61 71h135v-748h-70h-70v593l-22 -23q-41 -39 -113 -77z" />
<glyph horiz-adv-x="566" d="M39 838v66v67l196 440h102h103v-465h100v-108h-100v-161h-143v161h-258zM149 946h148v353l-137 -328z" />
<glyph horiz-adv-x="566" d="M118 1170v135q50 24 79 49t61 71h135v-748h-70h-70v593l-22 -23q-41 -39 -113 -77z" />
<glyph horiz-adv-x="566" d="M72 677v59v59q162 183 226 279q63 96 63 157q0 41 -19 65.5t-51 24.5q-37 0 -54.5 -21t-15.5 -65v-22h-141v22q-6 95 43.5 142.5t154.5 47.5q110 0 167 -47q57 -46 57 -136q0 -109 -60 -201q-50 -76 -220 -256h287v-108h-437z" />
<glyph horiz-adv-x="566" d="M75 847v22h140v-22q-1 -40 14.5 -59.5t47.5 -19.5q40 0 59.5 29.5t19.5 91.5q0 55 -19.5 86t-53.5 31h-53v106h8q61 0 89 23t28 73v18q0 50 -15 71.5t-50 21.5q-30 0 -46 -16t-15 -46v-22h-141v22q-5 89 42.5 128.5t160.5 39.5q100 0 152.5 -44.5t52.5 -129.5v-18 q0 -99 -46 -140q-28 -24 -81 -34q57 -10 84 -35q43 -40 43 -156q0 -103 -54.5 -154t-164.5 -51q-108 0 -156.5 44t-45.5 140z" />
<glyph horiz-adv-x="566" d="M39 838v66v67l196 440h102h103v-465h100v-108h-100v-161h-143v161h-258zM149 946h148v353l-137 -328z" />
<glyph horiz-adv-x="0" d="M-242 309h213l110 -309h-142z" />
<glyph horiz-adv-x="0" d="M-107 0l114 309h210l-182 -309h-142z" />
<glyph horiz-adv-x="0" d="M-233 0l110 290h123h123l110 -290h-128l-105 206l-105 -206h-128z" />
<glyph horiz-adv-x="0" d="M-236 28q0 127 23.5 181.5t78.5 54.5q38 0 73 -15.5t96 -59.5q16 -12 32 -20t23 -8q23 0 34.5 27t6.5 66h105q0 -132 -22.5 -184t-79.5 -52q-25 0 -76.5 23t-92.5 52q-41 28 -55 28q-19 0 -29 -23t-12 -70h-105z" />
<glyph horiz-adv-x="0" d="M-257 41v193h194v-193h-194zM64 41v193h194v-193h-194z" />
<glyph horiz-adv-x="0" d="M-186 189q0 78 54 132t132 54t132 -54t54 -132t-54 -132t-132 -54t-132 54t-54 132zM-90 189q0 -38 26 -64t64 -26t64 26t26 64t-26 64t-64 26t-64 -26t-26 -64z" />
<glyph horiz-adv-x="0" d="M-229 -366l157 269h145l-95 -269h-207z" />
<glyph horiz-adv-x="0" d="M-250 309h218l115 -309h-146z" />
<glyph horiz-adv-x="0" d="M-110 0l117 309h216l-187 -309h-146z" />
<glyph horiz-adv-x="0" d="M-231 0l96 290h135h135l96 -290h-132l-99 206l-99 -206h-132z" />
<glyph horiz-adv-x="0" d="M-237 47q0 127 23.5 181.5t79.5 54.5q38 0 73 -15.5t96 -59.5q16 -12 32 -20t24 -8q23 0 34.5 27t6.5 66h105q0 -132 -22.5 -184t-80.5 -52q-25 0 -76.5 23t-92.5 52q-17 12 -33.5 20t-22.5 8q-19 0 -29 -23t-12 -70h-105z" />
<glyph horiz-adv-x="0" d="M-256 64v182h194v-182h-194zM63 64v182h194v-182h-194z" />
<glyph horiz-adv-x="0" d="M-185 188q0 78 53.5 132t131.5 54t132 -54t54 -132t-54 -131.5t-132 -53.5t-131.5 53.5t-53.5 131.5zM-89 188q0 -37 26 -63t63 -26q38 0 64 26t26 63q0 38 -26 64t-64 26q-37 0 -63 -26t-26 -64z" />
<glyph horiz-adv-x="0" d="M-229 -366l157 269h145l-95 -269h-207z" />
<glyph horiz-adv-x="0" d="M0 1299v89h393v-89h-152v-518h-89v518h-152z" />
<glyph horiz-adv-x="0" d="M0 781v607h160l112 -486l112 486h160v-607h-89v559l-129 -559h-108l-129 559v-559h-89z" />
</font>
</defs>
</svg>
