<?xml version="1.0" standalone="no"?>
<!DOCTYPE svg PUBLIC "-//W3C//DTD SVG 1.1//EN" "http://www.w3.org/Graphics/SVG/1.1/DTD/svg11.dtd" >
<svg xmlns="http://www.w3.org/2000/svg">
<metadata>
This is a custom SVG webfont generated by Font Squirrel.
Copyright   : Copyright c 199297 HewlettPackard All rights reserved
</metadata>
<defs>
<font id="UniversCondensedBold" horiz-adv-x="906" >
<font-face units-per-em="2048" ascent="1638" descent="-410" />
<missing-glyph horiz-adv-x="453" />
<glyph unicode=" "  horiz-adv-x="453" />
<glyph unicode="&#x09;" horiz-adv-x="453" />
<glyph unicode="&#xa0;" horiz-adv-x="453" />
<glyph unicode="!" horiz-adv-x="604" d="M182 0v259h260v-259h-260zM184 1411h257l-28 -1020h-200z" />
<glyph unicode="&#x22;" horiz-adv-x="831" d="M95 1411h259l-38 -466h-181zM478 1411h259l-38 -466h-181z" />
<glyph unicode="#" horiz-adv-x="982" d="M-27 375l49 169h151l99 342h-151l49 169h151l107 370h188l-107 -370h180l107 370h188l-107 -370h130l-49 -169h-130l-99 -342h130l-49 -169h-130l-128 -440h-188l128 440h-180l-128 -440h-188l128 440h-151zM360 544h181l99 342h-181z" />
<glyph unicode="$" horiz-adv-x="982" d="M149 483v11v42h263v-42q-1 -67 21 -100t68 -33t69 28t23 85q0 62 -35 97q-35 34 -145 81q-142 61 -200 132q-57 70 -57 182q0 115 94 186q61 43 139 62v234h224v-233q101 -14 152 -56q74 -59 74 -197v-17v-42h-262v42q1 57 -19 85.5t-61 28.5q-39 0 -58 -21.5t-19 -64.5 q0 -55 33 -87q33 -31 136 -76q146 -63 205 -132t59 -176q0 -151 -88 -227q-57 -49 -152 -66v-263h-224v260q-106 16 -162 61q-78 65 -78 216z" />
<glyph unicode="%" horiz-adv-x="1360" d="M75 940v269q0 121 55.5 174.5t181.5 53.5t181.5 -53.5t55.5 -174.5v-269q0 -158 -50 -215.5t-187 -57.5t-187 57.5t-50 215.5zM242 931q0 -91 13.5 -119t56.5 -28t56.5 28t13.5 119v269q0 72 -13.5 94t-56.5 22q-41 0 -55.5 -24.5t-14.5 -91.5v-269zM276 -70l664 1523 h146l-664 -1523h-146zM812 259v269q0 121 55.5 174.5t181.5 53.5t181.5 -53.5t55.5 -174.5v-269q0 -158 -50 -215.5t-187 -57.5t-187 57.5t-50 215.5zM979 250q0 -91 13.5 -119t56.5 -28t56.5 28t13.5 119v269q0 72 -13.5 94t-56.5 22q-41 0 -55.5 -24.5t-14.5 -91.5v-269z " />
<glyph unicode="&#x26;" horiz-adv-x="1284" d="M86 383q0 151 69 244q51 68 177 154q-58 77 -92 139q-56 100 -56 167q0 156 97.5 247t264.5 91q162 0 261.5 -80.5t99.5 -211.5q0 -120 -90 -224q-65 -73 -175 -141l263 -337q8 25 12 51q18 102 15 300h106h106q13 -206 -21 -354q-24 -104 -73 -182l192 -246h-142h-142 l-70 86q-45 -30 -96 -54q-117 -53 -255 -53q-203 0 -327 111t-124 293zM332 401q0 -108 67 -175q67 -66 177 -66q86 0 146 34l51 36l-318 394q-44 -31 -70 -62q-53 -63 -53 -161zM430 1116q0 -45 34 -105q22 -37 63 -94q45 30 75 61q59 61 59 132q0 61 -31.5 98t-83.5 37 q-53 0 -85 -35q-31 -35 -31 -94z" />
<glyph unicode="'" horiz-adv-x="453" d="M95 1411h259l-38 -466h-181z" />
<glyph unicode="(" horiz-adv-x="453" d="M93 623q0 181 43 395.5t114 384.5h179q-57 -137 -91.5 -351.5t-34.5 -428.5q0 -231 35 -456t91 -361h-179q-71 171 -114 396q-43 224 -43 421z" />
<glyph unicode=")" horiz-adv-x="453" d="M46 -194q57 138 92 352.5t35 427.5q0 230 -35 455t-92 362h179q71 -172 115 -397q43 -224 43 -420q0 -180 -43.5 -394.5t-114.5 -385.5h-179z" />
<glyph unicode="*" horiz-adv-x="982" d="M174 1034v164l220 -27l-134 175l141 84l90 -205l86 206l143 -81l-132 -180l220 26v-164l-220 27l134 -175l-141 -84l-90 205l-86 -206l-143 81l132 180z" />
<glyph unicode="+" horiz-adv-x="1360" d="M213 447v150h390v390h150v-390h390v-150h-390v-390h-150v390h-390z" />
<glyph unicode="," horiz-adv-x="453" d="M71 -189l56 458h255l-133 -458h-178z" />
<glyph unicode="-" horiz-adv-x="453" d="M81 407v191h296v-191h-296z" />
<glyph unicode="." horiz-adv-x="453" d="M103 0v259h260v-259h-260z" />
<glyph unicode="/" horiz-adv-x="453" d="M59 -183l173 1594h183l-173 -1594h-183z" />
<glyph unicode="0" horiz-adv-x="982" d="M107 376v650q0 211 90 305t294 94t294 -93.5t90 -304.5v-650q0 -211 -90 -304.5t-294 -93.5t-294 93.5t-90 303.5zM375 453q0 -180 21 -230.5t97 -50.5q79 0 99 48t20 233v563q0 129 -24.5 173.5t-94.5 44.5q-68 0 -93 -46t-25 -172v-563z" />
<glyph unicode="1" horiz-adv-x="982" d="M223 953v226q81 48 128 95t96 130h239v-1404h-133h-133v1101l-36 -39q-57 -57 -161 -109z" />
<glyph unicode="2" horiz-adv-x="982" d="M125 0v119v119q255 308 368 509q113 200 113 344q0 71 -25 104t-79 33q-60 0 -86 -44t-17 -132v-42h-259v42q-20 183 71 274t294 91q194 0 280 -79t86 -258q0 -199 -122 -398q-107 -175 -393 -488h522v-194h-753z" />
<glyph unicode="3" horiz-adv-x="982" d="M116 335v42h259v-42q-2 -84 22.5 -125.5t74.5 -41.5q72 0 100.5 42.5t28.5 150.5v119q0 79 -35.5 121.5t-100.5 42.5h-111v188h81q93 0 129.5 40t36.5 142v64q0 88 -23.5 123t-82.5 35q-54 0 -80 -30.5t-25 -92.5v-42h-259v42q-5 165 80.5 238.5t283.5 73.5 q194 0 280 -75t86 -245v-28q0 -210 -77 -286q-30 -29 -80 -47q45 -17 73 -41q84 -71 84 -244v-119q0 -191 -87.5 -276t-285.5 -85q-204 0 -289.5 82t-82.5 274z" />
<glyph unicode="4" horiz-adv-x="982" d="M65 303v139v140l354 829h189h189v-914h150v-194h-150v-303h-266v303h-466zM246 497h285v666l-248 -581z" />
<glyph unicode="5" horiz-adv-x="982" d="M123 309v42h264v-42q-1 -71 27 -106t86 -35q74 0 98 50t24 207v95q0 136 -20.5 179.5t-85.5 43.5q-58 0 -85.5 -45t-30.5 -146h-268l13 859h700v-199h-457v-366l26 23q80 65 202 65q146 0 206 -85t60 -293v-143q0 -230 -89.5 -332t-290.5 -102q-207 0 -294.5 76 t-84.5 254z" />
<glyph unicode="6" horiz-adv-x="982" d="M116 423v579q0 233 90 328t311 95q184 0 267.5 -80t80.5 -254v-29h-263v29q4 72 -21 108t-78 36q-72 0 -97 -36.5t-25 -140.5v-141l1 -59q98 73 225 73q140 0 202.5 -88.5t62.5 -288.5v-142q0 -230 -89 -331.5t-289 -101.5q-215 0 -296.5 95.5t-81.5 348.5zM381 375 q0 -112 25.5 -157.5t88.5 -45.5q65 0 89.5 43.5t24.5 159.5v199q0 96 -24.5 132t-89.5 36q-62 0 -88 -38.5t-26 -129.5v-199z" />
<glyph unicode="7" horiz-adv-x="982" d="M108 1212v199h744v-108v-108l-350 -1195h-283l383 1195l5 17h-499z" />
<glyph unicode="8" horiz-adv-x="982" d="M112 337v84q0 190 88 259q44 35 129 52q-67 20 -112 50q-101 71 -101 232v78q0 177 88.5 255t288.5 78t289 -80t89 -260v-64q0 -164 -89 -237q-40 -33 -104 -51q73 -20 116 -61q81 -77 81 -251v-84q0 -190 -90 -274t-292 -84t-291.5 84t-89.5 274zM375 374 q0 -133 20 -167.5t98 -34.5q79 0 99 34.5t20 167.5v84q0 116 -20 146t-99 30q-70 0 -94 -36t-24 -140v-84zM379 1030q0 -124 22 -164t92 -40t92.5 41t22.5 170v14q0 114 -22.5 150.5t-92.5 36.5q-67 0 -90.5 -37t-23.5 -143v-28z" />
<glyph unicode="9" horiz-adv-x="982" d="M114 884v134q0 216 89 311.5t289 95.5q207 0 292 -84t85 -290v-706q0 -190 -96 -278t-304 -88q-202 0 -276.5 78.5t-71.5 285.5v29h263v-29q-5 -101 16 -137.5t83 -36.5q71 0 96 36.5t25 140.5v141v111q-98 -69 -225 -69q-140 0 -202.5 83.5t-62.5 271.5zM384 866 q0 -80 25.5 -114t84.5 -34q56 0 83 36.5t27 111.5v188q0 93 -26.5 135.5t-83.5 42.5q-59 0 -84.5 -41t-25.5 -137v-188z" />
<glyph unicode=":" horiz-adv-x="453" d="M103 0v259h260v-259h-260zM103 698v259h260v-259h-260z" />
<glyph unicode=";" horiz-adv-x="453" d="M71 -189l56 458h255l-133 -458h-178zM122 698v259h260v-259h-260z" />
<glyph unicode="&#x3c;" horiz-adv-x="2039" d="M410 553v75v75l1225 546v-192l-966 -429l966 -436v-192z" />
<glyph unicode="=" horiz-adv-x="1360" d="M215 286v150h926v-150h-926zM215 609v150h926v-150h-926z" />
<glyph unicode="&#x3e;" horiz-adv-x="2039" d="M410 0v192l966 436l-966 429v192l1225 -546v-75v-75z" />
<glyph unicode="?" d="M100 1072v42q-5 159 80 238.5t261 79.5q171 0 256 -76.5t85 -230.5q0 -100 -30.5 -178.5t-136.5 -252.5q-52 -85 -64 -133t-12 -176h-210q0 196 12 253.5t76 173.5q77 141 94 188.5t17 124.5q0 72 -19 101q-19 28 -68 28q-42 0 -62.5 -35t-19.5 -105v-42h-259zM304 0v259 h260v-259h-260z" />
<glyph unicode="@" horiz-adv-x="1360" d="M64 421v337q1 364 142.5 519t473.5 155q333 0 474.5 -131.5t140.5 -440.5v-441q0 -154 -62 -219.5t-208 -65.5q-157 0 -214 125q-9 -21 -20 -37q-59 -88 -178 -88q-118 0 -176.5 78.5t-58.5 235.5v297q0 132 50.5 198t152.5 66q114 0 173 -77v56h227v-610q0 -40 10 -57 t33 -17q30 0 43 26.5t13 88.5v441q0 212 -92 302.5t-308 90.5q-217 0 -309 -114t-92 -381v-337q0 -268 89.5 -382t300.5 -114q81 0 169.5 14t136.5 35v-194q-33 -14 -131 -24t-206 -10q-311 0 -443 155t-131 520zM596 473q0 -97 15 -128t63 -31q44 0 62 39t18 134v178 q0 97 -17.5 135t-61.5 38q-43 0 -61 -29.5t-18 -99.5v-236z" />
<glyph unicode="A" horiz-adv-x="1133" d="M82 0l320 1411h169h170l319 -1411h-139h-140l-55 305h-308l-57 -305h-139h-140zM457 515h231l-114 632z" />
<glyph unicode="B" horiz-adv-x="1095" d="M133 0v1411h144h283q243 0 331 -77t88 -289v28q0 -215 -95 -290q-57 -45 -179 -62q130 -18 193 -65q99 -75 99 -283v29q0 -237 -94.5 -319.5t-366.5 -82.5h-259h-144zM422 212h91q117 0 156 45t39 181v-29q0 126 -39.5 165t-169.5 39h-77v-401zM422 825h58 q128 0 170.5 42.5t42.5 169.5v-28q0 110 -41.5 150t-155.5 40h-74v-374z" />
<glyph unicode="C" horiz-adv-x="1057" d="M117 487v435q0 281 99.5 395.5t342.5 114.5q211 0 313 -107q96 -100 95 -297v-27v-42h-287v42v13q0 100 -28 152q-30 54 -93 54q-81 0 -117 -62.5t-36 -203.5v-435q0 -184 33.5 -256t119.5 -72q67 -1 99 61q31 58 31 172v14v42h287v-42v-20q0 -234 -92 -334 q-96 -106 -325 -105q-243 0 -342.5 114.5t-99.5 393.5z" />
<glyph unicode="D" horiz-adv-x="1133" d="M141 0v1411h144h236q272 0 388 -107.5t116 -359.5v-395v-6q1 -313 -101 -427q-102 -116 -387 -116h-252h-144zM430 212h76q136 0 183 55.5t47 214.5v466q0 143 -52.5 197t-192.5 54h-61v-987z" />
<glyph unicode="E" horiz-adv-x="944" d="M138 0v1411h705v-105v-105h-416v-373h402v-105v-105h-402v-408h424v-105v-105h-713z" />
<glyph unicode="F" d="M136 0v1411h676v-105v-105h-387v-384h366v-105v-105h-366v-607h-144h-145z" />
<glyph unicode="G" horiz-adv-x="1133" d="M127 553v334q1 289 110 417t355 128q215 0 319 -104q97 -97 97 -286v-26v-42h-287v42v10q0 95 -35 143q-36 51 -111 51q-89 0 -124 -69.5t-35 -247.5v-334q0 -231 33.5 -304.5t137.5 -73.5q41 0 132 22v325h-133v210h422v-713q-229 -55 -445 -56h1q-244 0 -340 126.5 t-97 447.5z" />
<glyph unicode="H" horiz-adv-x="1133" d="M142 0v1411h144h145v-583h275v583h144h145v-1411h-144h-145v618h-275v-618h-144h-145z" />
<glyph unicode="I" horiz-adv-x="529" d="M125 0v1411h144h145v-1411h-144h-145z" />
<glyph unicode="J" horiz-adv-x="982" d="M65 417v42h288v-42v-20q0 -109 21 -155q23 -49 83 -49q53 0 80 36.5t27 108.5v1073h141h142v-1073q0 -183 -96 -271t-295 -88q-215 0 -305 101q-86 96 -86 317v20z" />
<glyph unicode="K" horiz-adv-x="1095" d="M145 0v1411h144h145v-649l310 649h153h154l-307 -621l312 -790h-157h-157l-308 762v-762h-144h-145z" />
<glyph unicode="L" horiz-adv-x="868" d="M143 0v1411h144h145v-1201h367v-105v-105h-656z" />
<glyph unicode="M" horiz-adv-x="1511" d="M123 0v1411h202h203l225 -1080l224 1080h201h202v-1411h-118h-119v1185l-247 -1185h-144h-144l-248 1190v-1190h-118h-119z" />
<glyph unicode="N" horiz-adv-x="1171" d="M142 0v1411h212h213l244 -1191v1191h118h119v-1411h-211h-212l-246 1201v-1201h-118h-119z" />
<glyph unicode="O" horiz-adv-x="1133" d="M129 458v581q0 197 109.5 295t329.5 98t330 -98t110 -295v-581q0 -263 -99 -371t-341 -108q-241 0 -340 108t-99 371zM418 446q0 -143 33 -199t117 -56q85 0 118 56t33 199v581q0 95 -38.5 144t-112.5 49t-112 -49t-38 -144v-581z" />
<glyph unicode="P" horiz-adv-x="1057" d="M128 0v1411h144h284q230 0 328 -96t98 -321q0 -255 -99 -343.5t-384 -88.5h-82v-562h-144h-145zM417 774h82q116 0 155 43t39 173q0 121 -40.5 165t-153.5 44h-82v-425z" />
<glyph unicode="Q" horiz-adv-x="1171" d="M138 524v392q1 284 99.5 400t339.5 116q233 0 336.5 -113t103.5 -367v-406q1 -239 -132 -368l215 14v-192h-235l-288 -21q-263 0 -350.5 109t-88.5 436zM427 519q0 -184 33 -256t117 -72q85 0 118 75t33 267v406q0 157 -33 219t-118 62h9q-89 0 -124 -68t-35 -241v-392z " />
<glyph unicode="R" horiz-adv-x="1057" d="M123 0v1411h144h280q227 0 324 -84t97 -282q0 -224 -98 -302q-49 -39 -151 -61h16q119 0 179 -78q54 -69 54 -192q0 -14 -1 -29q-2 -61 -2 -127v-44q2 -92 6 -139.5t12 -71.5h-144h-144q-7 23 -10 70t-3 141v171v10q0 97 -40 139q-42 44 -146 44h-84v-576h-144h-145z M412 792h80q112 0 149.5 41.5t37.5 165.5q0 116 -39.5 158t-147.5 42h-80v-407z" />
<glyph unicode="S" horiz-adv-x="1095" d="M104 382v13v42h285v-42v-10q-1 -95 37 -143q40 -51 121 -51q79 0 118 46t39 139q0 69 -48 119q-47 50 -165 106q-206 97 -288 191q-82 93 -82 231q0 205 110.5 307t332.5 102q228 0 322 -95q88 -90 87 -290v-31v-42h-285v42v14q0 101 -28 144q-30 46 -105 46 q-74 0 -111 -42.5t-37 -127.5q0 -66 44 -113q43 -47 152 -98q215 -102 301 -199t86 -238q0 -212 -110.5 -317.5t-332.5 -105.5q-242 0 -342.5 94.5t-100.5 308.5z" />
<glyph unicode="T" horiz-adv-x="1020" d="M63 1201v105v105h896v-105v-105h-303v-1201h-144h-145v1201h-304z" />
<glyph unicode="U" horiz-adv-x="1133" d="M132 396v1015h143h143v-1034q0 -105 32.5 -146.5t115.5 -41.5t115.5 41.5t32.5 146.5v1034h143h143v-1015q0 -209 -108.5 -313t-325.5 -104t-325.5 104t-108.5 313z" />
<glyph unicode="V" horiz-adv-x="1057" d="M56 1411h143h144l197 -1094l188 1094h138h138l-304 -1411h-169h-170z" />
<glyph unicode="W" horiz-adv-x="1586" d="M53 1411h128h128l156 -1072l179 1072h147h147l198 -1089l153 1089h121h122l-235 -1411h-164h-164l-185 1003l-164 -1003h-164h-164z" />
<glyph unicode="X" horiz-adv-x="1133" d="M69 0l327 733l-297 678h148h148l186 -466l187 466h138h138l-305 -692l319 -719h-140h-140l-211 495l-219 -495h-139h-140z" />
<glyph unicode="Y" horiz-adv-x="1057" d="M53 1411h154h155l166 -562l183 562h144h145l-328 -873v-538h-144h-145v527z" />
<glyph unicode="Z" horiz-adv-x="944" d="M68 0v135v136l493 869l35 61h-506v105v105h786v-135v-136l-493 -869l-35 -61h523v-105v-105h-803z" />
<glyph unicode="[" horiz-adv-x="453" d="M93 -194v1597h300v-135h-100v-1321h100v-141h-300z" />
<glyph unicode="\" horiz-adv-x="453" d="M60 1411h184l171 -1594h-184z" />
<glyph unicode="]" horiz-adv-x="453" d="M67 -53h101v1321h-101v135h301v-1597h-301v141z" />
<glyph unicode="^" horiz-adv-x="1020" d="M99 993v94q139 102 214 196q76 95 145 253h53h53q69 -158 144 -252q76 -95 216 -197v-94q-232 105 -368 219l-46 41l-44 -40q-136 -114 -367 -220z" />
<glyph unicode="_" horiz-adv-x="1020" d="M0 -407h1020v-105h-1020v105z" />
<glyph unicode="`" horiz-adv-x="982" d="M271 1420h296l108 -317h-219z" />
<glyph unicode="a" d="M78 239v60q0 175 86 246.5t297 71.5h79v120q0 55 -20.5 83t-61.5 28q-51 0 -75 -30q-21 -27 -21 -77v-13v-29h-259v29v7q-1 138 81 202q84 66 267 66q177 0 262.5 -73.5t85.5 -227.5v-702h-251v81l-11 -13q-73 -89 -220 -89q-112 0 -175.5 69t-63.5 191zM338 230 q0 -46 24 -72t66 -26q56 0 84 49.5t28 147.5v135h-34q-92 0 -130 -39t-38 -135v-60z" />
<glyph unicode="b" d="M95 0v1411h129h130v-513l4 5q74 100 223 100q118 0 176.5 -77t58.5 -231v-348q0 -202 -55 -285t-190 -83q-147 0 -225 96v-75h-251zM354 377q2 -135 22 -179q20 -43 81 -43q64 0 84.5 45.5t20.5 187.5v246q0 108 -23 150.5t-81 42.5q-55 0 -79.5 -52t-24.5 -170v-228z " />
<glyph unicode="c" horiz-adv-x="831" d="M81 353v276q0 198 79.5 286t259.5 88q179 0 260 -83q79 -79 79 -251v-12v-29h-257v29q1 15 1 28q-1 66 -17 102q-20 43 -63 43q-48 0 -66.5 -39t-18.5 -142v-276q0 -135 16 -178t66 -43q48 0 67 36q16 30 16 94q0 13 -1 28v58h257v-58v-11q0 -157 -82 -237 q-85 -82 -257 -83q-180 0 -259.5 88t-79.5 286z" />
<glyph unicode="d" d="M96 327v348q0 164 62.5 246t187.5 82h2q108 0 210 -93v501h129h130v-1411h-121h-121v107l-11 -17q-73 -111 -218 -111q-133 0 -191.5 82t-58.5 266zM356 347q0 -104 23 -148t77 -44q62 0 82 52.5t20 216.5v134q0 164 -19.5 216.5t-81.5 52.5q-59 0 -80 -40.5t-21 -152.5 v-287z" />
<glyph unicode="e" horiz-adv-x="868" d="M78 363v194q0 245 81.5 345.5t280.5 100.5q210 0 286 -87t76 -328v-143h-467v-30q0 -171 20.5 -226t84.5 -55q61 0 85 40q21 34 21 106q0 12 -1 25v29h257v-29q0 -5 1 -10q0 -157 -94 -235q-96 -82 -291 -81q-180 0 -260 90t-80 294zM335 595h210v55q0 115 -22 156.5 t-83 41.5t-83 -50t-22 -189v-14z" />
<glyph unicode="f" horiz-adv-x="642" d="M49 808v174h137v159q0 144 66 213.5t203 69.5q73 0 137 -8v-169l-37 1q-60 0 -85 -24t-25 -83v-159h147v-174h-147v-808h-129h-130v808h-137z" />
<glyph unicode="g" d="M94 356v270q0 189 61 283t184 94q127 0 213 -108l8 -10v97h255v-1056q0 -157 -90.5 -236t-270.5 -79q-189 0 -272 64q-81 62 -81 201v7v29h260v-29v-14q0 -50 19 -77q21 -32 66 -32q54 0 76 37.5t22 128.5v185l-10 -13q-73 -98 -204 -98q-130 0 -183 80t-53 276zM355 386 q0 -128 18.5 -169t75.5 -41q58 0 76.5 42t18.5 173v221q0 131 -18.5 173t-76.5 42q-48 0 -71 -42t-23 -129v-270z" />
<glyph unicode="h" horiz-adv-x="944" d="M116 0v1411h129h130v-514q86 106 239 106q100 0 161.5 -72t61.5 -189v-742h-129h-130v714q0 60 -21.5 87t-69.5 27q-62 0 -89 -54q-24 -47 -24 -144q0 -14 1 -29v-601h-129h-130z" />
<glyph unicode="i" horiz-adv-x="491" d="M118 1165v234h260v-234h-260zM119 0v982h129h130v-982h-129h-130z" />
<glyph unicode="j" horiz-adv-x="491" d="M-9 -213h2q74 0 99 28t25 111v1056h129h130v-1104q0 -128 -76 -197.5t-217 -69.5q-40 0 -92 11v165zM117 1165v234h260v-234h-260z" />
<glyph unicode="k" d="M118 0v1411h129h130v-1411h-129h-130zM377 535l197 447h139h139l-209 -430l209 -552h-133h-133z" />
<glyph unicode="l" horiz-adv-x="491" d="M120 0v1411h129h130v-1411h-129h-130z" />
<glyph unicode="m" horiz-adv-x="1360" d="M91 0v982h121h122v-95l1 1q76 115 225 115q128 0 192 -68q25 -26 40 -63q10 20 22 34q75 97 216 97q125 0 187.5 -73t62.5 -220v-710h-129h-130v690q0 66 -24 102t-68 36q-56 0 -84.5 -42t-28.5 -125v-661h-129h-130v688q0 67 -24 103.5t-69 36.5q-66 0 -92 -51 q-22 -44 -23 -143q0 -16 1 -33v-601h-129h-130z" />
<glyph unicode="n" horiz-adv-x="944" d="M115 0v982h129h130v-92q84 113 241 113q111 0 166 -64.5t55 -194.5v-744h-129h-130v714q0 60 -21.5 87t-69.5 27q-64 0 -90 -51q-22 -44 -23 -143q0 -16 1 -33v-601h-129h-130z" />
<glyph unicode="o" d="M95 353v276q0 198 84.5 286t275.5 88t276 -88t85 -286v-276q0 -198 -85 -286t-276 -88t-275.5 88t-84.5 286zM352 374q0 -146 20 -193t83 -47t83.5 47t20.5 193v276q0 109 -23.5 153.5t-80.5 44.5t-80 -44.5t-23 -153.5v-276z" />
<glyph unicode="p" d="M95 -388v1370h129h130v-84l4 5q74 100 223 100q118 0 176.5 -77t58.5 -231v-348q0 -202 -54 -285t-187 -83h-3q-142 0 -218 95v-462h-129h-130zM354 377q2 -135 22 -178.5t81 -43.5q64 0 84.5 45.5t20.5 187.5v246q0 108 -23 150.5t-81 42.5q-55 0 -79.5 -52t-24.5 -170 v-228z" />
<glyph unicode="q" d="M95 327v348q0 164 62.5 246t187.5 82h2q114 0 218 -100v79h251v-1370h-125h-126v488l-7 -10q-77 -111 -232 -111q-122 0 -176.5 82t-54.5 266zM355 347q0 -104 23 -148t77 -44q62 0 82 52.5t20 216.5v134q0 164 -19.5 216.5t-81.5 52.5q-56 0 -78.5 -43.5t-22.5 -149.5 v-287z" />
<glyph unicode="r" horiz-adv-x="680" d="M119 0v982h123h124v-127q14 27 30 49q69 88 234 98v-220q-25 5 -56 4q-112 0 -156 -55q-40 -50 -40 -168v-22v-541h-129h-130z" />
<glyph unicode="s" horiz-adv-x="831" d="M64 284v11v29h258v-29q-1 -14 -1 -27q1 -68 19 -98q22 -36 78 -36q51 0 76.5 29t25.5 88q0 54 -33 90q-32 35 -112 70q-183 79 -244 141q-60 61 -60 168q0 142 85.5 212.5t257.5 70.5q180 0 261.5 -68t81.5 -212v-7v-29h-261v29v16q0 54 -18 83q-20 33 -64 33t-65.5 -24 t-21.5 -73q0 -45 30 -77q30 -31 104 -63q187 -81 249 -146q61 -65 61 -182q0 -152 -88 -228t-265 -76q-190 0 -273 74q-81 72 -81 231z" />
<glyph unicode="t" horiz-adv-x="642" d="M43 808v174h138v157l259 107v-264h161v-174h-161v-538q0 -71 15 -93t65 -22q44 1 81 6v-170q-76 -12 -173 -12q-123 0 -185 73t-62 218v538h-138z" />
<glyph unicode="u" horiz-adv-x="944" d="M112 263v719h129h130v-688q0 -74 22 -107t71 -33q66 0 92 51q22 44 22 143q0 16 -1 33v601h129h130v-982h-121h-122v97q-103 -117 -238 -118q-122 0 -182.5 71t-60.5 213z" />
<glyph unicode="v" d="M61 982h131h132l137 -729l137 729h129h130l-230 -982h-168h-168z" />
<glyph unicode="w" horiz-adv-x="1435" d="M32 982h130h131l116 -777l141 777h168h168l151 -770l107 770h128h129l-193 -982h-168h-168l-145 763l-162 -763h-168h-168z" />
<glyph unicode="x" d="M52 0l253 507l-229 475h129h130l128 -294l140 294h125h125l-251 -468l251 -514h-122h-123l-148 317l-156 -317h-126h-126z" />
<glyph unicode="y" d="M54 982h129h130l146 -605l151 605h125h125l-351 -1347h-123h-124l86 357z" />
<glyph unicode="z" horiz-adv-x="755" d="M70 0v113v114l348 551l20 32h-339v86v86h587v-102v-102l-330 -551l-34 -55h370v-86v-86h-622z" />
<glyph unicode="{" horiz-adv-x="1020" d="M161 449v190q120 19 182 90.5t62 191.5v264q0 231 103 310t388 66v-190q-148 7 -195.5 -29.5t-47.5 -156.5v-264q0 -201 -116 -308q-43 -40 -105 -70q61 -30 103 -70q118 -109 118 -306v-264q0 -112 52 -152t191 -34v-190q-270 -13 -380.5 72t-110.5 304v264 q0 127 -58.5 194.5t-185.5 87.5z" />
<glyph unicode="|" horiz-adv-x="1020" d="M458 -512v2048h105v-2048h-105z" />
<glyph unicode="}" horiz-adv-x="1020" d="M124 -283q139 -6 191 34t52 152v264q0 197 118 306q43 41 103 70q-63 31 -105 70q-116 107 -116 308v264q0 120 -47.5 156.5t-195.5 29.5v190q285 13 388 -66t103 -310v-264q0 -120 62 -191.5t181 -90.5v-190q-126 -20 -184.5 -87.5t-58.5 -194.5v-264q0 -219 -110 -304 q-111 -85 -381 -72v190z" />
<glyph unicode="~" horiz-adv-x="2039" d="M414 490q54 102 149 172.5t178 70.5q81 0 157.5 -16.5t183.5 -56.5q68 -26 156.5 -44t147.5 -18q76 0 152 36t109 88l37 -56q-35 -108 -130 -182t-197 -74q-48 0 -124.5 16.5t-216.5 57.5q-89 26 -178 43.5t-128 17.5q-71 0 -148 -35t-116 -86z" />
<glyph unicode="&#xa1;" horiz-adv-x="604" d="M182 723v259h260v-259h-260zM183 -429l28 1020h200l29 -1020h-257z" />
<glyph unicode="&#xa2;" horiz-adv-x="982" d="M165 572v275q0 198 80 286q54 59 152 79v240h217v-240q99 -19 153 -74q79 -80 79 -251v-12v-29h-267v29q5 92 -12.5 138t-56.5 46q-48 0 -63 -38t-15 -156v-275q0 -144 15 -190t63 -46q45 0 59.5 35.5t9.5 138.5v58h267v-58q3 -165 -83 -247q-54 -53 -149 -73v-269h-217 v266q-110 19 -161 73q-71 78 -71 294z" />
<glyph unicode="&#xa3;" horiz-adv-x="982" d="M125 0v194h87v471h-87v189h87v290q0 141 80 211t241 70q179 0 252.5 -80.5t67.5 -270.5v-42h-258v42q1 82 -13.5 115.5t-51.5 33.5q-33 0 -49.5 -19.5t-16.5 -59.5v-290h207v-189h-207v-471h389v-97v-97h-728z" />
<glyph unicode="&#xa4;" horiz-adv-x="982" d="M-48 292l136 136q-80 119 -80 272q2 154 79 273l-135 135l132 132l136 -136q118 80 272 80t272 -80l136 136l132 -132l-136 -136q80 -119 80 -272q1 -153 -81 -271l137 -137l-132 -132l-136 136q-118 -79 -272 -80q-153 0 -272 80l-136 -136zM208 700q0 -119 82.5 -201.5 t201.5 -82.5t201.5 82.5t82.5 201.5t-82.5 201.5t-201.5 82.5t-201.5 -82.5t-82.5 -201.5z" />
<glyph unicode="&#xa5;" horiz-adv-x="982" d="M38 1411h154h154l157 -552l174 552h144h144l-318 -874v-81h226v-95h-226v-88h226v-95h-226v-178h-144h-145v178h-226v95h226v88h-226v95h226v76z" />
<glyph unicode="&#xa6;" horiz-adv-x="1020" d="M458 458h105v-919h-105v919zM458 564v919h105v-919h-105z" />
<glyph unicode="&#xa7;" horiz-adv-x="982" d="M153 701q0 125 91 187q44 31 112 46q-42 29 -71 54q-92 82 -92 186q0 133 81 199t243 66q53 0 111.5 -8.5t123.5 -26.5v-178q-69 18 -124.5 26.5t-97.5 8.5q-70 0 -104.5 -20t-34.5 -60t40.5 -74t140.5 -77q140 -60 196.5 -126t56.5 -168q0 -117 -93 -189 q-38 -30 -86 -47q73 -40 112 -80q67 -68 67 -171q0 -147 -91.5 -220t-275.5 -73q-76 0 -142 7.5t-123 23.5v177q76 -20 138.5 -29.5t113.5 -9.5q91 0 136.5 28t45.5 84q0 40 -38.5 71t-132.5 69q-167 66 -235 138.5t-68 185.5zM360 722q0 -56 37 -94q30 -30 98 -60 q42 2 84.5 44.5t42.5 89.5q0 54 -34 91q-29 32 -96 63q-52 -7 -87 -38q-45 -39 -45 -96z" />
<glyph unicode="&#xa8;" horiz-adv-x="982" d="M216 1177v230h232v-230h-232zM548 1177v230h232v-230h-232z" />
<glyph unicode="&#xa9;" horiz-adv-x="1020" d="M68 1051q0 201 138.5 339.5t338.5 138.5q201 0 339.5 -138.5t138.5 -339.5q0 -200 -138.5 -338.5t-339.5 -138.5q-200 0 -338.5 138.5t-138.5 338.5zM133 1051q0 -173 119.5 -292.5t292.5 -119.5t293 119.5t120 292.5t-120 293t-293 120t-292.5 -120t-119.5 -293z M316 1060q0 116 75.5 195.5t184.5 79.5q58 0 114.5 -22t79.5 -54l-58 -62q-19 26 -58.5 44.5t-77.5 18.5q-78 0 -131.5 -58t-53.5 -142t54.5 -141.5t133.5 -57.5q37 0 77 19.5t61 47.5l58 -62q-24 -34 -81 -57t-115 -23q-110 0 -186.5 79.5t-76.5 194.5z" />
<glyph unicode="&#xaa;" horiz-adv-x="831" d="M145 960q0 122 64 172t221 50h58v72q0 34 -18 51t-53 17q-36 0 -54 -17.5t-18 -53.5v-22h-182v22q3 90 63 132t187 42t188.5 -47.5t61.5 -146.5v-452h-158v100q-12 -25 -32 -47q-60 -67 -155 -67q-81 0 -127 51.5t-46 143.5zM326 964q0 -36 17.5 -52.5t54.5 -16.5 q45 0 65.5 26t24.5 66v87h-28q-74 0 -104 -24.5t-30 -85.5z" />
<glyph unicode="&#xab;" d="M69 494l170 370h209l-149 -370l149 -371h-203zM455 494l170 370h209l-149 -370l149 -371h-203z" />
<glyph unicode="&#xac;" horiz-adv-x="1360" d="M215 652v150h926v-540h-150v390h-776z" />
<glyph unicode="&#xad;" horiz-adv-x="453" d="M81 407v191h296v-191h-296z" />
<glyph unicode="&#xae;" horiz-adv-x="1020" d="M68 1046q0 201 138.5 339.5t338.5 138.5q201 0 339.5 -138.5t138.5 -339.5q0 -200 -138.5 -338.5t-339.5 -138.5q-200 0 -338.5 138.5t-138.5 338.5zM133 1046q0 -173 119.5 -292.5t292.5 -119.5t293 119.5t120 292.5t-120 293t-293 120t-292.5 -120t-119.5 -293z M378 807v506h187q62 0 104.5 -42.5t42.5 -104.5t-43 -105q-20 -20 -46 -31l89 -223h-91l-84 212h-84v-212h-75zM453 1094h112q30 0 51 21t21 51t-21 51t-51 21h-112v-72v-72z" />
<glyph unicode="&#xaf;" horiz-adv-x="1020" d="M0 1526v105h1020v-105h-1020z" />
<glyph unicode="&#xb0;" horiz-adv-x="982" d="M174 1106q0 149 84.5 233.5t233.5 84.5t233.5 -84.5t84.5 -233.5t-84.5 -233.5t-233.5 -84.5t-233.5 84.5t-84.5 233.5zM330 1106q0 -89 43 -139.5t119 -50.5t119 50.5t43 139.5t-43 139.5t-119 50.5t-119 -50.5t-43 -139.5z" />
<glyph unicode="&#xb1;" horiz-adv-x="1360" d="M213 -51h930v-150h-930v150zM213 447v150h390v390h150v-390h390v-150h-390v-390h-150v390h-390z" />
<glyph unicode="&#xb2;" horiz-adv-x="642" d="M99 677v58v59q154 169 222 274t68 174q0 34 -13.5 49.5t-43.5 15.5q-33 0 -47 -21.5t-10 -65.5v-22h-163v22q-11 103 44.5 154t177.5 51q118 0 170 -45q52 -44 52 -145t-75 -209q-59 -83 -204 -232h288v-117h-466z" />
<glyph unicode="&#xb3;" horiz-adv-x="642" d="M102 862v22h163v-22q-1 -43 13.5 -64.5t43.5 -21.5q43 0 60 24.5t17 87.5q0 48 -21 74.5t-60 26.5h-55v124h46q47 0 65.5 21t18.5 75v19q0 41 -15.5 62.5t-44.5 21.5q-30 0 -45 -16.5t-14 -50.5v-22h-163v22q-3 95 49.5 137.5t173.5 42.5q118 0 170.5 -42.5t52.5 -137.5 q0 -117 -47 -160q-24 -22 -72 -32q49 -10 76 -32q49 -40 49 -147q0 -112 -54.5 -161.5t-176.5 -49.5q-126 0 -179 46t-51 153z" />
<glyph unicode="&#xb4;" horiz-adv-x="982" d="M362 1103l120 317h284l-189 -317h-215z" />
<glyph unicode="&#xb5;" horiz-adv-x="1208" d="M-123 -362l167 578l222 764h290l-160 -550q-30 -105 9.5 -178t127.5 -73q79 0 129.5 48.5t80.5 153.5l174 599h304l-284 -980h-237l33 114q-16 -26 -35 -47q-79 -88 -216 -88q-103 0 -154 71q-17 26 -26 54l-135 -466h-290z" />
<glyph unicode="&#xb6;" horiz-adv-x="982" d="M114 1045q0 216 161.5 348.5t425.5 132.5h260v-80h-138v-1772h-80v1772h-98v-1772h-80v892q-215 39 -333 163t-118 316z" />
<glyph unicode="&#xb7;" horiz-adv-x="453" d="M103 547v259h260v-259h-260z" />
<glyph unicode="&#xb8;" horiz-adv-x="982" d="M275 -405l169 299h184l-101 -299h-252z" />
<glyph unicode="&#xb9;" horiz-adv-x="642" d="M143 1164v145q53 19 83 43t59 73h159v-748h-83h-83v581l-36 -39q-33 -32 -99 -55z" />
<glyph unicode="&#xba;" horiz-adv-x="831" d="M155 986v217q0 118 61 170t198 52t198 -52t61 -170v-217q0 -126 -55.5 -173.5t-203.5 -47.5q-137 0 -198 52t-61 169zM334 1001q0 -55 19.5 -80.5t61.5 -25.5q45 0 63 23.5t18 82.5v217q0 43 -19.5 62.5t-61.5 19.5q-41 0 -61 -20t-20 -62v-217z" />
<glyph unicode="&#xbb;" d="M70 123l149 370l-149 371h203l176 -371l-170 -370h-209zM456 123l149 370l-149 371h203l176 -371l-170 -370h-209z" />
<glyph unicode="&#xbc;" horiz-adv-x="1360" d="M218 -71l670 1524h146l-670 -1524h-146zM143 1164v145q53 19 83 43t59 73h159v-748h-83h-83v581l-36 -39q-33 -32 -99 -55zM683 161v72v72l191 429h117h118v-456h100v-117h-100v-161h-162v161h-264zM812 278h135v336l-124 -309z" />
<glyph unicode="&#xbd;" horiz-adv-x="1360" d="M198 -71l670 1524h146l-670 -1524h-146zM117 1164v145q53 19 83 43t59 73h159v-748h-83h-83v581l-36 -39q-33 -32 -99 -55zM738 0v58v59q154 169 222 274t68 174q0 34 -13.5 49.5t-43.5 15.5q-33 0 -47 -21.5t-10 -65.5v-22h-163v22q-11 103 44.5 154t177.5 51 q118 0 170 -45q52 -44 52 -145t-75 -209q-59 -83 -204 -232h288v-117h-466z" />
<glyph unicode="&#xbe;" horiz-adv-x="1360" d="M281 -71l670 1524h146l-670 -1524h-146zM102 862v22h163v-22q-1 -43 13.5 -64.5t43.5 -21.5q43 0 60 24.5t17 87.5q0 48 -21 74.5t-60 26.5h-55v124h46q47 0 65.5 21t18.5 75v19q0 41 -15.5 62.5t-44.5 21.5q-30 0 -45 -16.5t-14 -50.5v-22h-163v22q-3 95 49.5 137.5 t173.5 42.5q118 0 170.5 -42.5t52.5 -137.5q0 -117 -47 -160q-24 -22 -72 -32q49 -10 76 -32q49 -40 49 -147q0 -112 -54.5 -161.5t-176.5 -49.5q-126 0 -179 46t-51 153zM749 161v72v72l191 429h117h118v-456h100v-117h-100v-161h-162v161h-264zM878 278h135v336l-124 -309 z" />
<glyph unicode="&#xbf;" d="M128 -145q0 100 30.5 178.5t136.5 252.5q52 85 64 133t12 176h210q0 -196 -12 -253.5t-76 -173.5q-77 -141 -94 -188.5t-17 -124.5q0 -72 19 -101q19 -28 68 -28q42 0 62.5 35t19.5 105v42h259v-42q5 -159 -80 -238.5t-261 -79.5q-171 0 -256 76.5t-85 230.5zM346 721 v259h260v-259h-260z" />
<glyph unicode="&#xc0;" horiz-adv-x="1133" d="M82 0l320 1411h169h170l319 -1411h-139h-140l-55 305h-308l-57 -305h-139h-140zM457 515h231l-114 632zM250 1790h303l169 -269h-215z" />
<glyph unicode="&#xc1;" horiz-adv-x="1133" d="M82 0l320 1411h169h170l319 -1411h-139h-140l-55 305h-308l-57 -305h-139h-140zM457 515h231l-114 632zM420 1521l176 269h297l-263 -269h-210z" />
<glyph unicode="&#xc2;" horiz-adv-x="1133" d="M82 0l320 1411h169h170l319 -1411h-139h-140l-55 305h-308l-57 -305h-139h-140zM457 515h231l-114 632zM233 1521l191 268h147h147l191 -268h-219l-116 170l-122 -170h-219z" />
<glyph unicode="&#xc3;" horiz-adv-x="1133" d="M82 0l320 1411h169h170l319 -1411h-139h-140l-55 305h-308l-57 -305h-139h-140zM457 515h231l-114 632zM259 1557q-2 134 28 188.5t105 54.5q42 0 88 -11t118 -38q21 -8 52.5 -17.5t37.5 -9.5q19 0 32.5 22t13.5 54h149q0 -141 -27 -192t-102 -51q-40 0 -87 11t-123 39 q-71 25 -85 25q-21 0 -36 -21.5t-15 -53.5h-149z" />
<glyph unicode="&#xc4;" horiz-adv-x="1133" d="M82 0l320 1411h169h170l319 -1411h-139h-140l-55 305h-308l-57 -305h-139h-140zM457 515h231l-114 632zM264 1526v227h228v-227h-228zM651 1526v227h228v-227h-228z" />
<glyph unicode="&#xc5;" horiz-adv-x="1133" d="M82 0l320 1411h169h170l319 -1411h-139h-140l-55 305h-308l-57 -305h-139h-140zM457 515h231l-114 632zM362 1733q0 88 60.5 148.5t148.5 60.5t148.5 -60.5t60.5 -148.5t-60.5 -148.5t-148.5 -60.5t-148.5 60.5t-60.5 148.5zM476 1733q0 -39 27.5 -66.5t67.5 -27.5 t67.5 27.5t27.5 66.5t-27.5 66.5t-67.5 27.5t-67.5 -27.5t-27.5 -66.5z" />
<glyph unicode="&#xc6;" horiz-adv-x="1586" d="M32 0l518 1411h376h568v-105v-105h-538l54 -373h464v-105v-105h-433l59 -408h394v-105v-105h-364h-291l-37 305h-373l-99 -305h-149h-149zM498 515h281l-77 625z" />
<glyph unicode="&#xc7;" horiz-adv-x="1057" d="M117 487v435q0 281 99.5 395.5t342.5 114.5q211 0 313 -107q96 -100 95 -297v-27v-42h-287v42v13q0 100 -28 152q-30 54 -93 54q-81 0 -117 -62.5t-36 -203.5v-435q0 -184 33.5 -256t119.5 -72q67 -1 99 61q31 58 31 172v14v42h287v-42v-20q0 -234 -92 -334 q-96 -106 -325 -105q-243 0 -342.5 114.5t-99.5 393.5zM296 -428l169 296h188l-104 -296h-253z" />
<glyph unicode="&#xc8;" horiz-adv-x="944" d="M138 0v1411h705v-105v-105h-416v-373h402v-105v-105h-402v-408h424v-105v-105h-713zM170 1790h303l169 -269h-215z" />
<glyph unicode="&#xc9;" horiz-adv-x="944" d="M138 0v1411h705v-105v-105h-416v-373h402v-105v-105h-402v-408h424v-105v-105h-713zM340 1521l176 269h297l-263 -269h-210z" />
<glyph unicode="&#xca;" horiz-adv-x="944" d="M138 0v1411h705v-105v-105h-416v-373h402v-105v-105h-402v-408h424v-105v-105h-713zM153 1521l191 268h147h147l191 -268h-219l-116 170l-122 -170h-219z" />
<glyph unicode="&#xcb;" horiz-adv-x="944" d="M138 0v1411h705v-105v-105h-416v-373h402v-105v-105h-402v-408h424v-105v-105h-713zM184 1526v227h228v-227h-228zM571 1526v227h228v-227h-228z" />
<glyph unicode="&#xcc;" horiz-adv-x="529" d="M112 0v1411h144h145v-1411h-144h-145zM-65 1790h303l169 -269h-215z" />
<glyph unicode="&#xcd;" horiz-adv-x="529" d="M111 0v1411h144h145v-1411h-144h-145zM104 1521l176 269h297l-263 -269h-210z" />
<glyph unicode="&#xce;" horiz-adv-x="529" d="M126 0v1411h144h145v-1411h-144h-145zM-68 1521l191 268h147h147l191 -268h-219l-116 170l-122 -170h-219z" />
<glyph unicode="&#xcf;" horiz-adv-x="529" d="M118 0v1411h144h145v-1411h-144h-145zM-45 1526v227h228v-227h-228zM342 1526v227h228v-227h-228z" />
<glyph unicode="&#xd0;" horiz-adv-x="1133" d="M31 601v210h125v600h144h232q267 0 380.5 -107.5t113.5 -359.5v-395q1 -318 -100 -433.5t-379 -115.5h-247h-144v601h-125zM445 212h72q130 0 175 55.5t45 214.5v466q0 143 -50.5 197t-183.5 54h-58v-388h131v-210h-131v-389z" />
<glyph unicode="&#xd1;" horiz-adv-x="1171" d="M142 0v1411h212h213l244 -1191v1191h118h119v-1411h-211h-212l-246 1201v-1201h-118h-119zM283 1557q-2 134 28 188.5t105 54.5q42 0 88 -11t118 -38q21 -8 52.5 -17.5t37.5 -9.5q19 0 32.5 22t13.5 54h149q0 -141 -27 -192t-102 -51q-40 0 -87 11t-123 39q-71 25 -85 25 q-21 0 -36 -21.5t-15 -53.5h-149z" />
<glyph unicode="&#xd2;" horiz-adv-x="1133" d="M129 458v581q0 197 109.5 295t329.5 98t330 -98t110 -295v-581q0 -263 -99 -371t-341 -108q-241 0 -340 108t-99 371zM418 446q0 -143 33 -199t117 -56q85 0 118 56t33 199v581q0 95 -38.5 144t-112.5 49t-112 -49t-38 -144v-581zM247 1790h303l169 -269h-215z" />
<glyph unicode="&#xd3;" horiz-adv-x="1133" d="M129 458v581q0 197 109.5 295t329.5 98t330 -98t110 -295v-581q0 -263 -99 -371t-341 -108q-241 0 -340 108t-99 371zM418 446q0 -143 33 -199t117 -56q85 0 118 56t33 199v581q0 95 -38.5 144t-112.5 49t-112 -49t-38 -144v-581zM417 1521l176 269h297l-263 -269h-210z " />
<glyph unicode="&#xd4;" horiz-adv-x="1133" d="M129 458v581q0 197 109.5 295t329.5 98t330 -98t110 -295v-581q0 -263 -99 -371t-341 -108q-241 0 -340 108t-99 371zM418 446q0 -143 33 -199t117 -56q85 0 118 56t33 199v581q0 95 -38.5 144t-112.5 49t-112 -49t-38 -144v-581zM230 1521l191 268h147h147l191 -268 h-219l-116 170l-122 -170h-219z" />
<glyph unicode="&#xd5;" horiz-adv-x="1133" d="M129 458v581q0 197 109.5 295t329.5 98t330 -98t110 -295v-581q0 -263 -99 -371t-341 -108q-241 0 -340 108t-99 371zM418 446q0 -143 33 -199t117 -56q85 0 118 56t33 199v581q0 95 -38.5 144t-112.5 49t-112 -49t-38 -144v-581zM256 1557q-2 134 28 188.5t105 54.5 q42 0 88 -11t118 -38q21 -8 52.5 -17.5t37.5 -9.5q19 0 32.5 22t13.5 54h149q0 -141 -27 -192t-102 -51q-40 0 -87 11t-123 39q-71 25 -85 25q-21 0 -36 -21.5t-15 -53.5h-149z" />
<glyph unicode="&#xd6;" horiz-adv-x="1133" d="M129 458v581q0 197 109.5 295t329.5 98t330 -98t110 -295v-581q0 -263 -99 -371t-341 -108q-241 0 -340 108t-99 371zM418 446q0 -143 33 -199t117 -56q85 0 118 56t33 199v581q0 95 -38.5 144t-112.5 49t-112 -49t-38 -144v-581zM261 1526v227h228v-227h-228zM648 1526 v227h228v-227h-228z" />
<glyph unicode="&#xd7;" horiz-adv-x="1360" d="M259 204l318 318l-318 318l106 106l318 -318l318 318l106 -106l-318 -318l318 -318l-106 -106l-318 318l-318 -318z" />
<glyph unicode="&#xd8;" horiz-adv-x="1133" d="M129 458v581q0 197 109.5 295t329.5 98q104 0 184 -22l46 142l86 -27l-48 -149q35 -16 62 -42q110 -98 110 -295v-581q0 -240 -110 -359.5t-330 -119.5q-101 0 -178 25l-52 -159l-86 27l55 170q-39 24 -69 57q-109 119 -109 359zM418 383l150 461l108 334q-36 42 -108 42 t-111 -58t-39 -166v-581v-32zM463 231q38 -40 105 -40q85 0 118 49.5t33 174.5v581v21l-151 -464z" />
<glyph unicode="&#xd9;" horiz-adv-x="1133" d="M132 396v1015h143h143v-1034q0 -105 32.5 -146.5t115.5 -41.5t115.5 41.5t32.5 146.5v1034h143h143v-1015q0 -209 -108.5 -313t-325.5 -104t-325.5 104t-108.5 313zM245 1790h303l169 -269h-215z" />
<glyph unicode="&#xda;" horiz-adv-x="1133" d="M132 396v1015h143h143v-1034q0 -105 32.5 -146.5t115.5 -41.5t115.5 41.5t32.5 146.5v1034h143h143v-1015q0 -209 -108.5 -313t-325.5 -104t-325.5 104t-108.5 313zM415 1521l176 269h297l-263 -269h-210z" />
<glyph unicode="&#xdb;" horiz-adv-x="1133" d="M132 396v1015h143h143v-1034q0 -105 32.5 -146.5t115.5 -41.5t115.5 41.5t32.5 146.5v1034h143h143v-1015q0 -209 -108.5 -313t-325.5 -104t-325.5 104t-108.5 313zM228 1521l191 268h147h147l191 -268h-219l-116 170l-122 -170h-219z" />
<glyph unicode="&#xdc;" horiz-adv-x="1133" d="M132 396v1015h143h143v-1034q0 -105 32.5 -146.5t115.5 -41.5t115.5 41.5t32.5 146.5v1034h143h143v-1015q0 -209 -108.5 -313t-325.5 -104t-325.5 104t-108.5 313zM259 1526v227h228v-227h-228zM646 1526v227h228v-227h-228z" />
<glyph unicode="&#xdd;" horiz-adv-x="1057" d="M53 1411h154h155l166 -562l183 562h144h145l-328 -873v-538h-144h-145v527zM375 1521l176 269h297l-263 -269h-210z" />
<glyph unicode="&#xde;" horiz-adv-x="1057" d="M128 0v1403h144h145v-243h111q258 0 355.5 -89t97.5 -326v33q0 -266 -97.5 -366t-355.5 -100h-111v-312h-144h-145zM417 524h86q117 0 156 48t39 192v-33q0 130 -39 173.5t-156 43.5h-86v-424z" />
<glyph unicode="&#xdf;" horiz-adv-x="1020" d="M117 0v1097q0 167 98.5 247t303.5 80q181 0 271 -66.5t90 -200.5q0 -92 -21.5 -144.5t-85.5 -116.5q-22 -22 -39 -51t-17 -45q0 -26 26.5 -77t63.5 -97q101 -126 133 -192.5t32 -151.5q0 -152 -80.5 -227.5t-242.5 -75.5q-67 0 -112 2.5t-77 8.5v172q25 -5 52.5 -7.5 t59.5 -2.5q67 0 105 37t38 102q0 47 -17.5 83.5t-72.5 105.5q-101 126 -133 184.5t-32 118.5q0 48 15 79t59 75q53 53 71 91t18 99q0 58 -32 91t-88 33q-62 0 -95 -40q-32 -39 -32 -114v-1097h-129h-130z" />
<glyph unicode="&#xe0;" d="M78 239v60q0 175 86 246.5t297 71.5h79v120q0 55 -20.5 83t-61.5 28q-51 0 -75 -30q-21 -27 -21 -77v-13v-29h-259v29v7q-1 138 81 202q84 66 267 66q177 0 262.5 -73.5t85.5 -227.5v-702h-251v81l-11 -13q-73 -89 -220 -89q-112 0 -175.5 69t-63.5 191zM338 230 q0 -46 24 -72t66 -26q56 0 84 49.5t28 147.5v135h-34q-92 0 -130 -39t-38 -135v-60zM186 1420h296l108 -317h-219z" />
<glyph unicode="&#xe1;" d="M78 239v60q0 175 86 246.5t297 71.5h79v120q0 55 -20.5 83t-61.5 28q-51 0 -75 -30q-21 -27 -21 -77v-13v-29h-259v29v7q-1 138 81 202q84 66 267 66q177 0 262.5 -73.5t85.5 -227.5v-702h-251v81l-11 -13q-73 -89 -220 -89q-112 0 -175.5 69t-63.5 191zM338 230 q0 -46 24 -72t66 -26q56 0 84 49.5t28 147.5v135h-34q-92 0 -130 -39t-38 -135v-60zM330 1103l120 317h284l-189 -317h-215z" />
<glyph unicode="&#xe2;" d="M78 239v60q0 175 86 246.5t297 71.5h79v120q0 55 -20.5 83t-61.5 28q-51 0 -75 -30q-21 -27 -21 -77v-13v-29h-259v29v7q-1 138 81 202q84 66 267 66q177 0 262.5 -73.5t85.5 -227.5v-702h-251v81l-11 -13q-73 -89 -220 -89q-112 0 -175.5 69t-63.5 191zM338 230 q0 -46 24 -72t66 -26q56 0 84 49.5t28 147.5v135h-34q-92 0 -130 -39t-38 -135v-60zM199 1103l120 317h141h141l120 -317h-167l-94 181l-94 -181h-167z" />
<glyph unicode="&#xe3;" d="M78 239v60q0 175 86 246.5t297 71.5h79v120q0 55 -20.5 83t-61.5 28q-51 0 -75 -30q-21 -27 -21 -77v-13v-29h-259v29v7q-1 138 81 202q84 66 267 66q177 0 262.5 -73.5t85.5 -227.5v-702h-251v81l-11 -13q-73 -89 -220 -89q-112 0 -175.5 69t-63.5 191zM338 230 q0 -46 24 -72t66 -26q56 0 84 49.5t28 147.5v135h-34q-92 0 -130 -39t-38 -135v-60zM195 1112q-5 156 24 219.5t104 63.5q30 0 69.5 -16.5t107.5 -56.5q6 -4 22.5 -8t24.5 -4q13 0 20 24.5t5 60.5h153q2 -164 -25.5 -223.5t-106.5 -59.5q-21 0 -60 16.5t-113 57.5 q-7 4 -22 8t-21 4q-14 0 -22.5 -25t-6.5 -61h-153z" />
<glyph unicode="&#xe4;" d="M78 239v60q0 175 86 246.5t297 71.5h79v120q0 55 -20.5 83t-61.5 28q-51 0 -75 -30q-21 -27 -21 -77v-13v-29h-259v29v7q-1 138 81 202q84 66 267 66q177 0 262.5 -73.5t85.5 -227.5v-702h-251v81l-11 -13q-73 -89 -220 -89q-112 0 -175.5 69t-63.5 191zM338 230 q0 -46 24 -72t66 -26q56 0 84 49.5t28 147.5v135h-34q-92 0 -130 -39t-38 -135v-60zM178 1177v230h232v-230h-232zM510 1177v230h232v-230h-232z" />
<glyph unicode="&#xe5;" d="M78 239v60q0 175 86 246.5t297 71.5h79v120q0 55 -20.5 83t-61.5 28q-51 0 -75 -30q-21 -27 -21 -77v-13v-29h-259v29v7q-1 138 81 202q84 66 267 66q177 0 262.5 -73.5t85.5 -227.5v-702h-251v81l-11 -13q-73 -89 -220 -89q-112 0 -175.5 69t-63.5 191zM338 230 q0 -46 24 -72t66 -26q56 0 84 49.5t28 147.5v135h-34q-92 0 -130 -39t-38 -135v-60zM257 1309q0 85 59 144t144 59t144 -59t59 -144t-59 -144t-144 -59t-144 59t-59 144zM371 1309q0 -37 26 -62.5t63 -25.5t63 25.5t26 62.5t-26 62.5t-63 25.5t-63 -25.5t-26 -62.5z" />
<glyph unicode="&#xe6;" horiz-adv-x="1360" d="M81 263v5q0 188 87 264.5t299 76.5h79v23q0 108 -21 162t-63 54q-54 0 -79 -32.5t-22 -97.5v-29h-259v29q-2 148 77 216.5t252 68.5q154 0 212 -79q20 -28 34 -72q13 29 28 51q69 100 240 100q180 0 245 -87t65 -328v-133h-451v-40q0 -171 19 -226t78 -55q57 0 79.5 44 t17.5 147v29h257v-29q3 -173 -79.5 -259.5t-249.5 -86.5q-154 0 -223 90q-26 35 -43 88q-19 -53 -48 -90q-72 -88 -216 -88q-148 0 -231.5 75.5t-83.5 208.5zM341 255q0 -58 24 -90.5t67 -32.5q57 0 85 49q26 44 29 126v149h-35q-94 0 -132 -44t-38 -152v-5zM804 605h194v45 q0 115 -20.5 156.5t-76.5 41.5t-76.5 -50t-20.5 -189v-4z" />
<glyph unicode="&#xe7;" horiz-adv-x="831" d="M81 353v276q0 198 79.5 286t259.5 88q179 0 260 -83q79 -79 79 -251v-12v-29h-257v29q1 15 1 28q-1 66 -17 102q-20 43 -63 43q-48 0 -66.5 -39t-18.5 -142v-276q0 -135 16 -178t66 -43q48 0 67 36q16 30 16 94q0 13 -1 28v58h257v-58v-11q0 -157 -82 -237 q-85 -82 -257 -83q-180 0 -259.5 88t-79.5 286zM198 -405l169 299h184l-101 -299h-252z" />
<glyph unicode="&#xe8;" horiz-adv-x="868" d="M78 363v194q0 245 81.5 345.5t280.5 100.5q210 0 286 -87t76 -328v-143h-467v-30q0 -171 20.5 -226t84.5 -55q61 0 85 40q21 34 21 106q0 12 -1 25v29h257v-29q0 -5 1 -10q0 -157 -94 -235q-96 -82 -291 -81q-180 0 -260 90t-80 294zM335 595h210v55q0 115 -22 156.5 t-83 41.5t-83 -50t-22 -189v-14zM180 1420h296l108 -317h-219z" />
<glyph unicode="&#xe9;" horiz-adv-x="868" d="M78 363v194q0 245 81.5 345.5t280.5 100.5q210 0 286 -87t76 -328v-143h-467v-30q0 -171 20.5 -226t84.5 -55q61 0 85 40q21 34 21 106q0 12 -1 25v29h257v-29q0 -5 1 -10q0 -157 -94 -235q-96 -82 -291 -81q-180 0 -260 90t-80 294zM335 595h210v55q0 115 -22 156.5 t-83 41.5t-83 -50t-22 -189v-14zM324 1103l120 317h284l-189 -317h-215z" />
<glyph unicode="&#xea;" horiz-adv-x="868" d="M78 363v194q0 245 81.5 345.5t280.5 100.5q210 0 286 -87t76 -328v-143h-467v-30q0 -171 20.5 -226t84.5 -55q61 0 85 40q21 34 21 106q0 12 -1 25v29h257v-29q0 -5 1 -10q0 -157 -94 -235q-96 -82 -291 -81q-180 0 -260 90t-80 294zM335 595h210v55q0 115 -22 156.5 t-83 41.5t-83 -50t-22 -189v-14zM193 1103l120 317h141h141l120 -317h-167l-94 181l-94 -181h-167z" />
<glyph unicode="&#xeb;" horiz-adv-x="868" d="M78 363v194q0 245 81.5 345.5t280.5 100.5q210 0 286 -87t76 -328v-143h-467v-30q0 -171 20.5 -226t84.5 -55q61 0 85 40q21 34 21 106q0 12 -1 25v29h257v-29q0 -5 1 -10q0 -157 -94 -235q-96 -82 -291 -81q-180 0 -260 90t-80 294zM335 595h210v55q0 115 -22 156.5 t-83 41.5t-83 -50t-22 -189v-14zM172 1177v230h232v-230h-232zM504 1177v230h232v-230h-232z" />
<glyph unicode="&#xec;" horiz-adv-x="491" d="M118 0v982h129h130v-982h-129h-130zM-27 1420h296l108 -317h-219z" />
<glyph unicode="&#xed;" horiz-adv-x="491" d="M117 0v982h129h130v-982h-129h-130zM116 1103l120 317h284l-189 -317h-215z" />
<glyph unicode="&#xee;" horiz-adv-x="491" d="M110 0v982h129h130v-982h-129h-130zM-22 1103l120 317h141h141l120 -317h-167l-94 181l-94 -181h-167z" />
<glyph unicode="&#xef;" horiz-adv-x="491" d="M112 0v982h129h130v-982h-129h-130zM-41 1177v230h232v-230h-232zM291 1177v230h232v-230h-232z" />
<glyph unicode="&#xf0;" d="M95 352v275q0 198 76 286t248 88q75 1 151 -42q-41 111 -108 206l-161 -76l-48 111l135 64q-42 51 -92 97l173 78q56 -41 102 -88l189 89l48 -111l-156 -74q51 -67 83 -144q82 -187 81 -471v-7v-288q0 -194 -85 -280t-276 -86t-275.5 87.5t-84.5 285.5zM352 373 q0 -125 23.5 -174.5t83.5 -49.5t84 49.5t24 174.5v275q0 93 -26.5 138t-81.5 45t-81 -45t-26 -138v-275z" />
<glyph unicode="&#xf1;" horiz-adv-x="944" d="M115 0v982h129h130v-92q84 113 241 113q111 0 166 -64.5t55 -194.5v-744h-129h-130v714q0 60 -21.5 87t-69.5 27q-64 0 -90 -51q-22 -44 -23 -143q0 -16 1 -33v-601h-129h-130zM210 1112q-5 156 24 219.5t104 63.5q30 0 69.5 -16.5t107.5 -56.5q6 -4 22.5 -8t24.5 -4 q13 0 20 24.5t5 60.5h153q2 -164 -25.5 -223.5t-106.5 -59.5q-21 0 -60 16.5t-113 57.5q-7 4 -22 8t-21 4q-14 0 -22.5 -25t-6.5 -61h-153z" />
<glyph unicode="&#xf2;" d="M95 353v276q0 198 84.5 286t275.5 88t276 -88t85 -286v-276q0 -198 -85 -286t-276 -88t-275.5 88t-84.5 286zM352 374q0 -146 20 -193t83 -47t83.5 47t20.5 193v276q0 109 -23.5 153.5t-80.5 44.5t-80 -44.5t-23 -153.5v-276zM181 1420h296l108 -317h-219z" />
<glyph unicode="&#xf3;" d="M95 353v276q0 198 84.5 286t275.5 88t276 -88t85 -286v-276q0 -198 -85 -286t-276 -88t-275.5 88t-84.5 286zM352 374q0 -146 20 -193t83 -47t83.5 47t20.5 193v276q0 109 -23.5 153.5t-80.5 44.5t-80 -44.5t-23 -153.5v-276zM325 1103l120 317h284l-189 -317h-215z" />
<glyph unicode="&#xf4;" d="M95 353v276q0 198 84.5 286t275.5 88t276 -88t85 -286v-276q0 -198 -85 -286t-276 -88t-275.5 88t-84.5 286zM352 374q0 -146 20 -193t83 -47t83.5 47t20.5 193v276q0 109 -23.5 153.5t-80.5 44.5t-80 -44.5t-23 -153.5v-276zM194 1103l120 317h141h141l120 -317h-167 l-94 181l-94 -181h-167z" />
<glyph unicode="&#xf5;" d="M95 353v276q0 198 84.5 286t275.5 88t276 -88t85 -286v-276q0 -198 -85 -286t-276 -88t-275.5 88t-84.5 286zM352 374q0 -146 20 -193t83 -47t83.5 47t20.5 193v276q0 109 -23.5 153.5t-80.5 44.5t-80 -44.5t-23 -153.5v-276zM190 1112q-5 156 24 219.5t104 63.5 q30 0 69.5 -16.5t107.5 -56.5q6 -4 22.5 -8t24.5 -4q13 0 20 24.5t5 60.5h153q2 -164 -25.5 -223.5t-106.5 -59.5q-21 0 -60 16.5t-113 57.5q-7 4 -22 8t-21 4q-14 0 -22.5 -25t-6.5 -61h-153z" />
<glyph unicode="&#xf6;" d="M95 353v276q0 198 84.5 286t275.5 88t276 -88t85 -286v-276q0 -198 -85 -286t-276 -88t-275.5 88t-84.5 286zM352 374q0 -146 20 -193t83 -47t83.5 47t20.5 193v276q0 109 -23.5 153.5t-80.5 44.5t-80 -44.5t-23 -153.5v-276zM173 1177v230h232v-230h-232zM505 1177v230 h232v-230h-232z" />
<glyph unicode="&#xf7;" horiz-adv-x="1360" d="M214 447v150h936v-150h-936zM568 223q0 48 33 81.5t81 33.5t81 -33.5t33 -81.5t-33 -81t-81 -33t-81 33t-33 81zM568 820q0 48 33 81.5t81 33.5t81 -33.5t33 -81.5t-33 -81t-81 -33t-81 33t-33 81z" />
<glyph unicode="&#xf8;" d="M95 353v276q0 198 84.5 286t275.5 88q66 0 119 -11l35 118l62 -18l-34 -116q56 -23 94 -61q85 -88 85 -286v-276q0 -198 -85 -286t-276 -88q-60 0 -108 9l-46 -155l-62 18l45 152q-64 22 -105 64q-84 88 -84 286zM352 374q0 -73 5 -123l98 335l71 241q-24 21 -71 21 q-63 0 -83 -38.5t-20 -159.5v-276zM394 151q24 -17 61 -17q63 0 83.5 47t20.5 193v276l-1 57l-103 -350z" />
<glyph unicode="&#xf9;" horiz-adv-x="944" d="M112 263v719h129h130v-688q0 -74 22 -107t71 -33q66 0 92 51q22 44 22 143q0 16 -1 33v601h129h130v-982h-121h-122v97q-103 -117 -238 -118q-122 0 -182.5 71t-60.5 213zM200 1420h296l108 -317h-219z" />
<glyph unicode="&#xfa;" horiz-adv-x="944" d="M112 263v719h129h130v-688q0 -74 22 -107t71 -33q66 0 92 51q22 44 22 143q0 16 -1 33v601h129h130v-982h-121h-122v97q-103 -117 -238 -118q-122 0 -182.5 71t-60.5 213zM344 1103l120 317h284l-189 -317h-215z" />
<glyph unicode="&#xfb;" horiz-adv-x="944" d="M112 263v719h129h130v-688q0 -74 22 -107t71 -33q66 0 92 51q22 44 22 143q0 16 -1 33v601h129h130v-982h-121h-122v97q-103 -117 -238 -118q-122 0 -182.5 71t-60.5 213zM213 1103l120 317h141h141l120 -317h-167l-94 181l-94 -181h-167z" />
<glyph unicode="&#xfc;" horiz-adv-x="944" d="M112 263v719h129h130v-688q0 -74 22 -107t71 -33q66 0 92 51q22 44 22 143q0 16 -1 33v601h129h130v-982h-121h-122v97q-103 -117 -238 -118q-122 0 -182.5 71t-60.5 213zM192 1177v230h232v-230h-232zM524 1177v230h232v-230h-232z" />
<glyph unicode="&#xfd;" d="M54 982h129h130l146 -605l151 605h125h125l-351 -1347h-123h-124l86 357zM327 1103l120 317h284l-189 -317h-215z" />
<glyph unicode="&#xfe;" d="M95 -388v1799h129h130v-513l4 5q74 100 223 100q118 0 176.5 -77t58.5 -231v-348q0 -202 -55 -285t-190 -83q-138 1 -217 85v-452h-129h-130zM354 377q2 -135 22 -178.5t81 -43.5q64 0 84.5 45.5t20.5 187.5v246q0 108 -23 150.5t-81 42.5q-55 0 -79.5 -52t-24.5 -170 v-228z" />
<glyph unicode="&#xff;" d="M54 982h129h130l146 -605l151 605h125h125l-351 -1347h-123h-124l86 357zM175 1177v230h232v-230h-232zM507 1177v230h232v-230h-232z" />
<glyph unicode="&#x131;" horiz-adv-x="491" d="M118 0v982h129h130v-982h-129h-130z" />
<glyph unicode="&#x152;" horiz-adv-x="1586" d="M128 464v428q1 313 110 422q109 108 422 108q46 0 83.5 -1.5t45.5 -3.5q8 -3 45.5 -4.5t82.5 -1.5h152h424v-105v-105h-424v-373h402v-105v-105h-402v-408h424v-105v-105h-424h-152q-58 0 -102 -1t-50 -3q-12 -3 -153 -3q-257 0 -370.5 110.5t-113.5 360.5zM417 523 q0 -178 51.5 -248t182.5 -70q98 0 129 12v985q-30 8 -109 8q-142 0 -198 -57t-56 -202v-428z" />
<glyph unicode="&#x153;" horiz-adv-x="1360" d="M95 373v235q0 209 75 302q74 93 241 93q168 0 243 -93q23 -29 39 -70q14 37 32 63q69 100 237 100q177 0 241.5 -87t64.5 -328v-143h-451v-30q0 -171 19 -226t78 -55q57 0 79 39.5t18 131.5v29h257v-29q3 -163 -78.5 -244.5t-246.5 -81.5q-152 0 -220 90q-20 28 -34 64 q-14 -34 -36 -62q-74 -92 -242 -92q-167 0 -241.5 92.5t-74.5 301.5zM352 446q0 -190 20.5 -251t83.5 -61q64 0 84.5 51t20.5 210v235q0 133 -21 176q-20 42 -84 42q-63 0 -83.5 -52.5t-20.5 -216.5v-133zM817 595h194v55q0 115 -20.5 156.5t-76.5 41.5t-76.5 -50 t-20.5 -189v-14z" />
<glyph unicode="&#x178;" horiz-adv-x="1057" d="M53 1411h154h155l166 -562l183 562h144h145l-328 -873v-538h-144h-145v527zM219 1526v227h228v-227h-228zM606 1526v227h228v-227h-228z" />
<glyph unicode="&#x2c6;" horiz-adv-x="982" d="M239 1103l120 317h141h141l120 -317h-167l-94 181l-94 -181h-167z" />
<glyph unicode="&#x2dc;" horiz-adv-x="982" d="M252 1112q-5 156 24 219.5t104 63.5q30 0 69.5 -16.5t107.5 -56.5q6 -4 22.5 -8t24.5 -4q13 0 20 24.5t5 60.5h153q2 -164 -25.5 -223.5t-106.5 -59.5q-21 0 -60 16.5t-113 57.5q-7 4 -22 8t-21 4q-14 0 -22.5 -25t-6.5 -61h-153z" />
<glyph unicode="&#x2000;" horiz-adv-x="971" />
<glyph unicode="&#x2001;" horiz-adv-x="1942" />
<glyph unicode="&#x2002;" horiz-adv-x="971" />
<glyph unicode="&#x2003;" horiz-adv-x="1942" />
<glyph unicode="&#x2004;" horiz-adv-x="647" />
<glyph unicode="&#x2005;" horiz-adv-x="485" />
<glyph unicode="&#x2006;" horiz-adv-x="323" />
<glyph unicode="&#x2007;" horiz-adv-x="323" />
<glyph unicode="&#x2008;" horiz-adv-x="242" />
<glyph unicode="&#x2009;" horiz-adv-x="388" />
<glyph unicode="&#x200a;" horiz-adv-x="107" />
<glyph unicode="&#x2010;" horiz-adv-x="453" d="M81 407v191h296v-191h-296z" />
<glyph unicode="&#x2011;" horiz-adv-x="453" d="M81 407v191h296v-191h-296z" />
<glyph unicode="&#x2012;" horiz-adv-x="453" d="M81 407v191h296v-191h-296z" />
<glyph unicode="&#x2013;" horiz-adv-x="982" d="M79 410v171h834v-171h-834z" />
<glyph unicode="&#x2014;" horiz-adv-x="1360" d="M94 410v171h1174v-171h-1174z" />
<glyph unicode="&#x2018;" horiz-adv-x="453" d="M73 953l133 458h178l-56 -458h-255z" />
<glyph unicode="&#x2019;" horiz-adv-x="453" d="M88 953l56 458h255l-133 -458h-178z" />
<glyph unicode="&#x201a;" horiz-adv-x="453" d="M88 -189l56 458h255l-133 -458h-178z" />
<glyph unicode="&#x201c;" horiz-adv-x="793" d="M69 953l133 458h178l-56 -458h-255zM404 953l133 458h178l-56 -458h-255z" />
<glyph unicode="&#x201d;" horiz-adv-x="793" d="M84 953l56 458h255l-133 -458h-178zM419 953l56 458h255l-133 -458h-178z" />
<glyph unicode="&#x201e;" horiz-adv-x="793" d="M84 -189l56 458h255l-133 -458h-178zM419 -189l56 458h255l-133 -458h-178z" />
<glyph unicode="&#x2022;" horiz-adv-x="1020" d="M140 733q0 155 107.5 262.5t262.5 107.5t262.5 -107.5t107.5 -262.5t-107.5 -262.5t-262.5 -107.5t-262.5 107.5t-107.5 262.5z" />
<glyph unicode="&#x2026;" horiz-adv-x="1360" d="M113 0v251h236v-251h-236zM563 0v251h236v-251h-236zM1014 0v251h236v-251h-236z" />
<glyph unicode="&#x202f;" horiz-adv-x="388" />
<glyph unicode="&#x2039;" horiz-adv-x="491" d="M69 494l170 370h209l-149 -370l149 -371h-203z" />
<glyph unicode="&#x203a;" horiz-adv-x="491" d="M70 123l149 370l-149 371h203l176 -371l-170 -370h-209z" />
<glyph unicode="&#x205f;" horiz-adv-x="485" />
<glyph unicode="&#x20ac;" horiz-adv-x="982" d="M29 459l26 186h91v104h-117l26 186h91q3 264 91 376q91 114 314 114q192 0 284 -102q87 -94 86 -279v-28v-42h-251v42q2 99 -29.5 148t-95.5 49q-70 0 -96 -57t-26 -207v-14h226l-26 -186h-200v-104h185l-26 -186h-158q2 -147 24 -203q24 -65 97 -65q65 0 96.5 54.5 t29.5 164.5v42h259v-42q4 -233 -83.5 -332t-295.5 -99q-223 0 -314 114q-87 108 -91 366h-117z" />
<glyph unicode="&#x2122;" horiz-adv-x="1246" d="M63 1299v89h393v-89h-152v-518h-89v518h-152zM519 781v607h160l112 -486l112 486h160v-607h-89v559l-129 -559h-108l-129 559v-559h-89z" />
<glyph unicode="&#x2215;" horiz-adv-x="227" d="M-299 -71l670 1524h146l-670 -1524h-146z" />
<glyph unicode="&#xe000;" horiz-adv-x="980" d="M0 980h980v-980h-980v980z" />
<glyph unicode="&#xfb01;" horiz-adv-x="1095" d="M48 808v174h137v159q0 144 66 213.5t203 69.5q73 0 137 -8v-169l-37 1q-60 0 -85 -24t-25 -83v-159h147v-174h-147v-808h-129h-130v808h-137zM719 1165v234h260v-234h-260zM720 0v982h129h130v-982h-129h-130z" />
<glyph unicode="&#xfb02;" horiz-adv-x="1133" d="M762 0v1411h129h130v-1411h-129h-130zM49 808v174h137v159q0 144 66 213.5t203 69.5q73 0 137 -8v-169l-37 1q-60 0 -85 -24t-25 -83v-159h147v-174h-147v-808h-129h-130v808h-137z" />
<glyph unicode="&#xfb03;" horiz-adv-x="1775" d="M1402 1165v234h260v-234h-260zM1403 0v982h129h130v-982h-129h-130zM691 808v174h137v159q0 144 66 213.5t203 69.5q73 0 137 -8v-169l-37 1q-60 0 -85 -24t-25 -83v-159h147v-174h-147v-808h-129h-130v808h-137zM49 808v174h137v159q0 144 66 213.5t203 69.5 q73 0 137 -8v-169l-37 1q-60 0 -85 -24t-25 -83v-159h147v-174h-147v-808h-129h-130v808h-137z" />
<glyph unicode="&#xfb04;" horiz-adv-x="1775" d="M1404 0v1411h129h130v-1411h-129h-130zM691 808v174h137v159q0 144 66 213.5t203 69.5q73 0 137 -8v-169l-37 1q-60 0 -85 -24t-25 -83v-159h147v-174h-147v-808h-129h-130v808h-137zM49 808v174h137v159q0 144 66 213.5t203 69.5q73 0 137 -8v-169l-37 1q-60 0 -85 -24 t-25 -83v-159h147v-174h-147v-808h-129h-130v808h-137z" />
<glyph horiz-adv-x="0" d="M-478 1051q0 201 138.5 339.5t338.5 138.5q201 0 339.5 -138.5t138.5 -339.5q0 -200 -138.5 -338.5t-339.5 -138.5q-200 0 -338.5 138.5t-138.5 338.5zM-413 1051q0 -173 119.5 -292.5t292.5 -119.5t293 119.5t120 292.5t-120 293t-293 120t-292.5 -120t-119.5 -293z" />
<glyph horiz-adv-x="0" d="M-244 1060q0 116 75.5 195.5t184.5 79.5q58 0 114.5 -22t79.5 -54l-58 -62q-19 26 -58.5 44.5t-77.5 18.5q-78 0 -131.5 -58t-53.5 -142t54.5 -141.5t133.5 -57.5q37 0 77 19.5t61 47.5l58 -62q-24 -34 -81 -57t-115 -23q-110 0 -186.5 79.5t-76.5 194.5z" />
<glyph horiz-adv-x="0" d="M-478 1046q0 201 138.5 339.5t338.5 138.5q201 0 339.5 -138.5t138.5 -339.5q0 -200 -138.5 -338.5t-339.5 -138.5q-200 0 -338.5 138.5t-138.5 338.5zM-413 1046q0 -173 119.5 -292.5t292.5 -119.5t293 119.5t120 292.5t-120 293t-293 120t-292.5 -120t-119.5 -293z" />
<glyph horiz-adv-x="0" d="M-160 807v506h187q62 0 104.5 -42.5t42.5 -104.5t-43 -105q-20 -20 -46 -31l89 -223h-91l-84 212h-84v-212h-75zM-85 1094h112q30 0 51 21t21 51t-21 51t-51 21h-112v-72v-72z" />
<glyph horiz-adv-x="642" d="M143 1164v145q53 19 83 43t59 73h159v-748h-83h-83v581l-36 -39q-33 -32 -99 -55z" />
<glyph horiz-adv-x="642" d="M66 838v72v72l191 429h117h118v-456h100v-117h-100v-161h-162v161h-264zM195 955h135v336l-124 -309z" />
<glyph horiz-adv-x="642" d="M143 1164v145q53 19 83 43t59 73h159v-748h-83h-83v581l-36 -39q-33 -32 -99 -55z" />
<glyph horiz-adv-x="642" d="M99 677v58v59q154 169 222 274t68 174q0 34 -13.5 49.5t-43.5 15.5q-33 0 -47 -21.5t-10 -65.5v-22h-163v22q-11 103 44.5 154t177.5 51q118 0 170 -45q52 -44 52 -145t-75 -209q-59 -83 -204 -232h288v-117h-466z" />
<glyph horiz-adv-x="642" d="M102 862v22h163v-22q-1 -43 13.5 -64.5t43.5 -21.5q43 0 60 24.5t17 87.5q0 48 -21 74.5t-60 26.5h-55v124h46q47 0 65.5 21t18.5 75v19q0 41 -15.5 62.5t-44.5 21.5q-30 0 -45 -16.5t-14 -50.5v-22h-163v22q-3 95 49.5 137.5t173.5 42.5q118 0 170.5 -42.5t52.5 -137.5 q0 -117 -47 -160q-24 -22 -72 -32q49 -10 76 -32q49 -40 49 -147q0 -112 -54.5 -161.5t-176.5 -49.5q-126 0 -179 46t-51 153z" />
<glyph horiz-adv-x="642" d="M66 838v72v72l191 429h117h118v-456h100v-117h-100v-161h-162v161h-264zM195 955h135v336l-124 -309z" />
<glyph horiz-adv-x="0" d="M-321 269h303l169 -269h-215z" />
<glyph horiz-adv-x="0" d="M-151 0l176 269h297l-263 -269h-210z" />
<glyph horiz-adv-x="0" d="M-338 0l191 268h147h147l191 -268h-219l-116 170l-122 -170h-219z" />
<glyph horiz-adv-x="0" d="M-312 36q-2 134 28 188.5t105 54.5q42 0 88 -11t118 -38q21 -8 52.5 -17.5t37.5 -9.5q19 0 32.5 22t13.5 54h149q0 -141 -27 -192t-102 -51q-40 0 -87 11t-123 39q-71 25 -85 25q-21 0 -36 -21.5t-15 -53.5h-149z" />
<glyph horiz-adv-x="0" d="M-307 5v227h228v-227h-228zM80 5v227h228v-227h-228z" />
<glyph horiz-adv-x="0" d="M-209 212q0 88 60.5 148.5t148.5 60.5t148.5 -60.5t60.5 -148.5t-60.5 -148.5t-148.5 -60.5t-148.5 60.5t-60.5 148.5zM-95 212q0 -39 27.5 -66.5t67.5 -27.5t67.5 27.5t27.5 66.5t-27.5 66.5t-67.5 27.5t-67.5 -27.5t-27.5 -66.5z" />
<glyph horiz-adv-x="0" d="M-263 -428l169 296h188l-104 -296h-253z" />
<glyph horiz-adv-x="0" d="M-274 317h296l108 -317h-219z" />
<glyph horiz-adv-x="0" d="M-130 0l120 317h284l-189 -317h-215z" />
<glyph horiz-adv-x="0" d="M-261 0l120 317h141h141l120 -317h-167l-94 181l-94 -181h-167z" />
<glyph horiz-adv-x="0" d="M-265 9q-5 156 24 219.5t104 63.5q30 0 69.5 -16.5t107.5 -56.5q6 -4 22.5 -8t24.5 -4q13 0 20 24.5t5 60.5h153q2 -164 -25.5 -223.5t-106.5 -59.5q-21 0 -60 16.5t-113 57.5q-7 4 -22 8t-21 4q-14 0 -22.5 -25t-6.5 -61h-153z" />
<glyph horiz-adv-x="0" d="M-282 74v230h232v-230h-232zM50 74v230h232v-230h-232z" />
<glyph horiz-adv-x="0" d="M-203 206q0 85 59 144t144 59t144 -59t59 -144t-59 -144t-144 -59t-144 59t-59 144zM-89 206q0 -37 26 -62.5t63 -25.5t63 25.5t26 62.5t-26 62.5t-63 25.5t-63 -25.5t-26 -62.5z" />
<glyph horiz-adv-x="0" d="M-222 -405l169 299h184l-101 -299h-252z" />
<glyph horiz-adv-x="0" d="M0 1299v89h393v-89h-152v-518h-89v518h-152z" />
<glyph horiz-adv-x="0" d="M0 781v607h160l112 -486l112 486h160v-607h-89v559l-129 -559h-108l-129 559v-559h-89z" />
</font>
</defs>
</svg>
